Quick Browse
Movies
TV shows
Music
Games
Applications
Anime
Other
Facebook
Advertising

Friends
Torrent Download
Movie4u
1337x.to
Torrent Downloads




Sinister 2012 DVDRip 400MB x264 AAC - ViZNU [P2PDL]


    Seeders : 2      Leechers : 2
Hash :1F043DA40B26BBE84F5C5B1747D91D04D2BD3B18
Added :1 Year+ by VYTOVerified torrent uploader in Movies
Size :412.38 MB
Stream :WATCH ONLINE @ Movie4u


Sinister 2012 DVDRip 400MB x264 AAC - ViZNU [P2PDL]
Free and Fast Download with Usenet 300GB+ free







Trackers List

Tracker NameLast CheckStatusSeedersLeechers




Torrent File Content (12 files)


Sinister 2012 DVDRip 400MB x264 AAC - ViZNU [P2PDL]
    Sinister 2012 DVDRip 400MB x264 AAC - ViZNU
          Sinister 2012 DVDRip 400MB x264 AAC - ViZNU [P2PDL].mp4 -
401.75 MB

    Cover, Screens & Sample
          Sample.mp4 -
8.47 MB

          Thumbs.png -
751.09 KB

          3.png -
338.36 KB

          1.png -
248.53 KB

          2.png -
230.88 KB

          5.png -
211.44 KB

          4.png -
196.22 KB

          Cover.jpg -
173.08 KB

    Sinister 2012 DVDRip 400MB x264 AAC - ViZNU
          Sinister 2012 DVDRip 400MB x264 AAC - ViZNU [P2PDL].srt -
58.63 KB

          Sinister 2012 DVDRip 400MB x264 AAC - ViZNU [P2PDL].nfo -
5.73 KB

     Torrent downloaded from P2PDL.com.txt -
33 bytes



Description



http://www.shotpix.com/images/90708508414720704104.jpg



Sinister 2012 DVDRip 400MB x264 AAC - ViZNU [P2PDL]


[code]Genre: Horror | Mystery | Thriller
Plot: A true-crime writer finds a cache of 8mm "snuff" films that suggest the murder he is currently
researching is the work of a serial killer whose career dates back to the 1960s.
Director: Scott Derrickson
Stars: Ethan Hawke, Juliet Rylance and James Ransone.
Rated: R for disturbing violent images and some terror.
http://cinemahouse.in/movie/250/Sinister[/code]

[code]General
Movie name : Sinister 2012
Format : MPEG-4
Format profile : Base Media
Codec ID : isom
File size : 402 MiB
Duration : 1h 45mn
Overall bit rate mode : Variable
Overall bit rate : 534 Kbps
Source : PAL.DVDR

Video
ID : 1
Format : AVC
Format/Info : Advanced Video Codec
Duration : 1h 45mn
Bit rate : 491 Kbps
Width : 720 pixels
Height : 304 pixels
Display aspect ratio : 2.35:1
Frame rate mode : Constant
Frame rate : 25.000 fps
Stream size : 369 MiB (92%)
Writing library : x264

Audio
ID : 2
Format : AAC
Format/Info : Advanced Audio Codec
Codec ID : 40
Duration : 1h 45mn
Bit rate mode : Variable
Bit rate : 40.0 Kbps
Channel(s) : 2 channels
Channel positions : Front: L R
Sampling rate : 44.1 KHz / 22.05 KHz
Stream size : 30.1 MiB (7%)

Subtitle : Yes (English)[/code]


Screens:

http://www.shotpix.com/images/03192170417739997555.png

http://www.shotpix.com/images/79946259984924278526.png

http://www.shotpix.com/images/07612240591877348260.png

http://www.shotpix.com/images/77564724975584691458.png

http://www.shotpix.com/images/05844217889099535241.png

http://www.shotpix.com/images/61453386918931398921.png


Sample:

[url]http://ul.to/m1bbjicq[/url]

http://torrent-stats.info/5b17/ba49727d.png


----------------------------------------------------------------------------------------------------

[code]Recommend to you to use latest version of VLC player. Install K-Lite Codec Pack or shark007 codecs
in case of any kind of problem in playback (For non-VLC Media Player users). Alternatively, install
Core AVC codecs, the fastest decoder that there is coupled with Community Center Codec Pack and play
on Windows Media Player Classic. Check sample to be sure. Enjoy!

Greets to: Vitamin_X, a2zRG, srkfan, staff members at ExtraTorrent, TPB, H33T, KAT, 1337x, PublicHD,
Ahashare, BTScene, TorrentMafia, P2PDL, and all others.

Encoder Notes: Looking For Early Access To Anything You Can Provide DVDScr, R5, DVDR, BluRay, Direct
Audio, Early Music Releases, Seedboxes, Dedicated Servers anything u can provide, Advance / Promo CDs/
DVDs. If You Got anything to offer contact me at "[email protected]".[/code]

[URL=http://www.facebook.com/p2pdl]
http://www.shotpix.com/images/28663408398567359499.png
[/URL]

Related torrents

Torrent NameAddedSizeSeedLeechHealth
Verified torrent
1 Year+ - in Movies410.61 MB27
1 Year+ - in Movies416.59 MB218
Verified torrent
1 Year+ - in Movies872.42 MB11
Verified torrent
1 Year+ - in Movies591.46 MB16
Verified torrent
1 Year+ - in Movies312.84 MB212

Comments (0 Comments)




Please login or create a FREE account to post comments

Latest Searches

| Best Of Rock 60 s | What on Earth S03E04 Mystery of Planet 9 | friends 1 10 full | Anal Casting Calls 4 Evil Angel NEW 2016 WEB DL Split Scenes | false nine epub | am hunt | the stalker xxx | simpson part 1 | waka flocka flame salute me or shoot 1 | Christina T Girl |