Quick Browse
Movies
TV shows
Music
Games
Applications
Anime
Other

Donate and Support

Friends
Torrents.me
Torrent Download
Free Movies
1337x
RARBG
Torrent Downloads

Verified torrent Sinister 2012 DVDRip English [Accipiter]


    Seeders : 1      Leechers : 0
Hash :9C54EFE4925B9F41D356A868686D2BB43CFCB389
Added :1 Year+ by souravfileVerified torrent uploader in Movies
Size :645.92 MB
Stream :Watch Full Movies Online @ Movie4u
Share :


Sinister 2012 DVDRip English [Accipiter]
Anonymous and Direct Download 300GB+ free







Warning! Do not Download Torrents Without a VPN!
Your IP Address is .   And Location is
Your Internet Provider and Government can track your torrent Activity!  Hide your IP ADDRESS with a VPN!
We Strongly Recommend Using SpyOFF Torrent VPN to Anonymize your Torrenting. It's FREE For 15 Days!

Note :

Please Update (Trackers Info) Before Downloading Torrents to See Updated Seeders And Leechers for Batter Download Speed.

Trackers List

Tracker NameLast CheckStatusSeedersLeechers




Torrent File Content (3 files)


Sinister 2012 DVDRip English [Accipiter]
     Sinister 2012 DVDRip English [Accipiter].mkv -
645.92 MB

     Torrent Downloaded From Digtorrent.org.txt -
346 bytes

     Torrent downloaded from souravfile torrents on BTScene.eu.txt -
69 bytes



Description



http://hostpicturefree.com/images/bannerlnl.gif


Cover:

http://ia.media-imdb.com/images/M/MV5BMjI5MTg1Njg0Ml5BMl5BanBnXkFtZTcwNzg2Mjc4Nw@@._V1._SY317_.jpg


Release info:

[code]General
Format : Matroska
Format version : Version 2
File size : 646 MiB
Duration : 1h 45mn
Overall bit rate : 859 Kbps

Video
ID : 1
Format : MPEG-4 Visual
Format profile : [email protected]
Format settings, BVOP : No
Format settings, QPel : No
Format settings, GMC : No warppoints
Format settings, Matrix : Default (H.263)
Codec ID : V_MS/VFW/FOURCC / XVID
Codec ID/Hint : XviD
Duration : 1h 45mn
Bit rate : 714 Kbps
Width : 640 pixels
Height : 272 pixels
Display aspect ratio : 2.35:1
Frame rate mode : Constant
Frame rate : 25.000 fps
Color space : YUV
Chroma subsampling : 4:2:0
Bit depth : 8 bits
Scan type : Progressive
Compression mode : Lossy
Bits/(Pixel*Frame) : 0.164
Stream size : 537 MiB (83%)
Language : English
Default : Yes
Forced : No

Audio
ID : 2
Format : MPEG Audio
Format version : Version 1
Format profile : Layer 3
Mode : Joint stereo
Mode extension : MS Stereo
Muxing mode : Header stripping
Codec ID : A_MPEG/L3
Codec ID/Hint : MP3
Duration : 1h 45mn
Bit rate mode : Constant
Bit rate : 128 Kbps
Channel(s) : 2 channels
Sampling rate : 48.0 KHz
Compression mode : Lossy
Stream size : 96.3 MiB (15%)
Language : English
Default : Yes
Forced : No

Source:
credit to original movie ripper NYDIC (Thanks)[/code]

IMDB Info:

[code]A true-crime writer finds a cache of 8mm "snuff" films that suggest the murder he is currently researching is the work of a serial killer whose career dates back to the 1960s.

Director: Scott Derrickson
Writers: Scott Derrickson, C. Robert Cargill
Stars: Ethan Hawke, Juliet Rylance and James Ransone

Genres: Horror | Mystery | Thriller[/code]

http://www.imdb.com/title/tt1922777/

Screen Shot:

http://www.shotpix.com/images/67024959942023207623.png

http://www.shotpix.com/images/49454535450074595335.png

http://www.shotpix.com/images/69872645977771875986.png

http://www.shotpix.com/images/50386803984868316532.png

http://www.shotpix.com/images/45626466320895975350.png

http://www.shotpix.com/images/56582300914603937649.png

Related torrents

Torrent NameAddedSizeSeedLeechHealth
Verified torrent
1 Year+ - in Movies693.68 MB16
1 Year+ - in Movies689.26 MB7612
1 Year+ - in Movies449.18 MB15
1 Year+ - in Movies690.98 MB27
1 Year+ - in Movies693.57 MB10

Comments (0 Comments)




Please login or create a FREE account to post comments

Latest Searches

| ramos epub | georgia okeeffe | bridgette b in the shower | Resident Evil Vendetta evo | may 3 2017 howard stern | Rice One Night So Pregnant | traffik 3 | Mallery Christmas on 4th Street | engages | BangBrosClips Jaslin Diaz Anal Lust |