Quick Browse
Movies
TV shows
Music
Games
Applications
Anime
Other
Facebook
Advertising

Friends
Torrent Download
Movie4u
1337x.to
Torrent Downloads




Verified torrent Sket 2011 720p BRRip XviD AC3-26k


    Seeders : 0      Leechers : 0
Hash :5D5310D9DA78CC7F08DDBEE3D0A9687EF0C161C9
Added :1 Year+ by memory100Verified torrent uploader in Movies
Size :1.8 GB
Stream :WATCH ONLINE @ Movie4u


Sket 2011 720p BRRip XviD AC3-26k
Free and Fast Download with Usenet 300GB+ free







Trackers List

Tracker NameLast CheckStatusSeedersLeechers




Torrent File Content (13 files)


Sket 2011 720p BRRip XviD AC3-26k
     1.png -
643.07 KB

     2.png -
620.21 KB

     26k nfo.nfo -
3.55 KB

     3.png -
622.57 KB

     4.png -
638.49 KB

     att-networks.com.txt -
39 bytes

     HDSceneRG.txt -
115 bytes

     sceneunderground.org.txt -
77 bytes

     Sket 2011 720p BRRip XviD AC3-26k.avi -
1.8 GB

     Sket 2011 720p BRRip XviD AC3-26k.jpg -
133.43 KB

     Torrent downloaded from Demonoid.me.txt -
46 bytes

     Torrent downloaded from rarbg.com.txt.txt -
0 bytes

     YouTube Latest Releases And Archive.txt -
80 bytes



Description



http://img828.imageshack.us/img828/1857/sket.jpg

[code]

Sket 2011 720p BRRip XviD AC3-26k

http://www.imdb.com/title/tt1658820/

Plot:
When a young woman is cruelly and indiscriminately attacked by a notorious gang led by the violent Trey,
her little 16 year old sister Kayla wants revenge and will stop at nothing to get it, even if it means
joining a rival girl gang led by the volatile and damaged man-hating Danielle.

Sources - Sket.2011.1080p.BluRay.X264-7SinS.....Thanks :P

Format : AVI
Format/Info : Audio Video Interleave
File size : 1.80 GiB
Duration : 1h 23mn
Overall bit rate : 3 084 Kbps

Video
ID : 0
Format : MPEG-4 Visual
Format profile : Advanced [email protected]
Format settings, BVOP : 2
Format settings, QPel : No
Format settings, GMC : No warppoints
Format settings, Matrix : Default (H.263)
Codec ID : XVID
Codec ID/Hint : XviD
Duration : 1h 23mn
Bit rate : 2 436 Kbps
Width : 1 280 pixels
Height : 528 pixels
Display aspect ratio : 2.40:1
Frame rate : 23.976 fps
Color space : YUV
Chroma subsampling : 4:2:0
Bit depth : 8 bits
Scan type : Progressive
Compression mode : Lossy
Bits/(Pixel*Frame) : 0.150
Stream size : 1.42 GiB (79%)
Writing library : XviD 1.2.1 (UTC 2008-12-04)

Audio
ID : 1
Format : AC-3
Format/Info : Audio Coding 3
Mode extension : CM (complete main)
Codec ID : 2000
Duration : 1h 23mn
Bit rate mode : Constant
Bit rate : 640 Kbps
Channel(s) : 6 channels
Channel positions : Front: L C R, Side: L R, LFE
Sampling rate : 48.0 KHz
Bit depth : 16 bits
Compression mode : Lossy
Stream size : 382 MiB (21%)
Alignment : Aligned on interleaves
Interleave, duration : 64 ms (1.53 video frames)
Interleave, preload duration : 192 ms





Notes -

Did my thing... turned out real nice...enjoy

[/code]

Screens:
http://i.imgur.com/KoSyQ.png

http://i.imgur.com/7j1CL.png

http://img18.imageshack.us/img18/6291/40602845.png

http://img585.imageshack.us/img585/8666/69985647.png

http://img39.imageshack.us/img39/7563/sket2011720pbrripxvidac.jpg


Alternative screens:
http://www.hotimg.com/image/tpzXmsQ
http://dippic.com/94d1aqwf93bn
http://imgdepot.org/show/20120309/2/622427_3.png
http://www.imageporter.com/gcza07svjqsq/2.png.html

Greetz:
Xtreme Encode|FYA|ILLUMANTI|CM8|RX|VISI​ON|HDSCENE|xTriLL|DTRG|CRYS|REMIX​HD|BIDA|RX|REFILL|INSPiRAL|SIC|
|HO​PE|Anonymous|GooN|miRaGe
To all the people who have helped me you know who you are

Anything to offer email us @: [email protected]


http://img851.imageshack.us/img851/5503/26ks.jpg

Thank you smallz for banner!

Related torrents

Torrent NameAddedSizeSeedLeechHealth
Verified torrent
1 Year+ - in Movies1.53 GB10
7 months ago - in Movies2.47 GB00
1 Good
Verified torrent
1 Year+ - in Movies2.27 GB00
Verified torrent
1 Year+ - in Movies2.21 GB10
Verified torrent
1 Year+ - in Movies1.93 GB00

Comments (0 Comments)




Please login or create a FREE account to post comments

Latest Searches

| Cosmic Gate Emma Hewitt Be Your Sound | commview for wifi 7 0 743 crack | 21 savage the | UFC THE ULTIMATE FIGHTER PRELIMS | jojos bizarre adventure diamond complete | Set Up 2011 BRRip XviD LTRG | level riddim | lightroom 5 full with crack | The Osbournes The Osbournes | Spongebob l |