Quick Browse
Movies
TV shows
Music
Games
Applications
Anime
Other
Facebook
Advertising

Friends
Torrent Download
Movie4u
1337x.to
Torrent Downloads




Slam.Bang.2009.DVDRip.Xvid.TA.torrent_[trackeraccess_org]


    Seeders : 0      Leechers : 0
Hash :8218FF9DAE1D2F554FD385796C86D8D607AC8AA7
Added :1 Year+ in Movies
Size :762.04 MB
Stream :WATCH ONLINE @ Movie4u


Slam.Bang.2009.DVDRip.Xvid.TA.torrent_[trackeraccess_org]
Free and Fast Download with Usenet 300GB+ free







Trackers List

Tracker NameLast CheckStatusSeedersLeechers




Torrent File Content (57 files)


Slam.Bang.2009.DVDRip.Xvid.TA
     Sample.avi -
3.19 MB

     Slam.Bang.2009.DVDRip.Xvid.TA.nfo -
2.92 KB

     Slam.Bang.2009.DVDRip.Xvid.TA.part01.rar -
13.97 MB

     Slam.Bang.2009.DVDRip.Xvid.TA.part02.rar -
13.97 MB

     Slam.Bang.2009.DVDRip.Xvid.TA.part03.rar -
13.97 MB

     Slam.Bang.2009.DVDRip.Xvid.TA.part04.rar -
13.97 MB

     Slam.Bang.2009.DVDRip.Xvid.TA.part05.rar -
13.97 MB

     Slam.Bang.2009.DVDRip.Xvid.TA.part06.rar -
13.97 MB

     Slam.Bang.2009.DVDRip.Xvid.TA.part07.rar -
13.97 MB

     Slam.Bang.2009.DVDRip.Xvid.TA.part08.rar -
13.97 MB

     Slam.Bang.2009.DVDRip.Xvid.TA.part09.rar -
13.97 MB

     Slam.Bang.2009.DVDRip.Xvid.TA.part10.rar -
13.97 MB

     Slam.Bang.2009.DVDRip.Xvid.TA.part11.rar -
13.97 MB

     Slam.Bang.2009.DVDRip.Xvid.TA.part12.rar -
13.97 MB

     Slam.Bang.2009.DVDRip.Xvid.TA.part13.rar -
13.97 MB

     Slam.Bang.2009.DVDRip.Xvid.TA.part14.rar -
13.97 MB

     Slam.Bang.2009.DVDRip.Xvid.TA.part15.rar -
13.97 MB

     Slam.Bang.2009.DVDRip.Xvid.TA.part16.rar -
13.97 MB

     Slam.Bang.2009.DVDRip.Xvid.TA.part17.rar -
13.97 MB

     Slam.Bang.2009.DVDRip.Xvid.TA.part18.rar -
13.97 MB

     Slam.Bang.2009.DVDRip.Xvid.TA.part19.rar -
13.97 MB

     Slam.Bang.2009.DVDRip.Xvid.TA.part20.rar -
13.97 MB

     Slam.Bang.2009.DVDRip.Xvid.TA.part21.rar -
13.97 MB

     Slam.Bang.2009.DVDRip.Xvid.TA.part22.rar -
13.97 MB

     Slam.Bang.2009.DVDRip.Xvid.TA.part23.rar -
13.97 MB

     Slam.Bang.2009.DVDRip.Xvid.TA.part24.rar -
13.97 MB

     Slam.Bang.2009.DVDRip.Xvid.TA.part25.rar -
13.97 MB

     Slam.Bang.2009.DVDRip.Xvid.TA.part26.rar -
13.97 MB

     Slam.Bang.2009.DVDRip.Xvid.TA.part27.rar -
13.97 MB

     Slam.Bang.2009.DVDRip.Xvid.TA.part28.rar -
13.97 MB

     Slam.Bang.2009.DVDRip.Xvid.TA.part29.rar -
13.97 MB

     Slam.Bang.2009.DVDRip.Xvid.TA.part30.rar -
13.97 MB

     Slam.Bang.2009.DVDRip.Xvid.TA.part31.rar -
13.97 MB

     Slam.Bang.2009.DVDRip.Xvid.TA.part32.rar -
13.97 MB

     Slam.Bang.2009.DVDRip.Xvid.TA.part33.rar -
13.97 MB

     Slam.Bang.2009.DVDRip.Xvid.TA.part34.rar -
13.97 MB

     Slam.Bang.2009.DVDRip.Xvid.TA.part35.rar -
13.97 MB

     Slam.Bang.2009.DVDRip.Xvid.TA.part36.rar -
13.97 MB

     Slam.Bang.2009.DVDRip.Xvid.TA.part37.rar -
13.97 MB

     Slam.Bang.2009.DVDRip.Xvid.TA.part38.rar -
13.97 MB

     Slam.Bang.2009.DVDRip.Xvid.TA.part39.rar -
13.97 MB

     Slam.Bang.2009.DVDRip.Xvid.TA.part40.rar -
13.97 MB

     Slam.Bang.2009.DVDRip.Xvid.TA.part41.rar -
13.97 MB

     Slam.Bang.2009.DVDRip.Xvid.TA.part42.rar -
13.97 MB

     Slam.Bang.2009.DVDRip.Xvid.TA.part43.rar -
13.97 MB

     Slam.Bang.2009.DVDRip.Xvid.TA.part44.rar -
13.97 MB

     Slam.Bang.2009.DVDRip.Xvid.TA.part45.rar -
13.97 MB

     Slam.Bang.2009.DVDRip.Xvid.TA.part46.rar -
13.97 MB

     Slam.Bang.2009.DVDRip.Xvid.TA.part47.rar -
13.97 MB

     Slam.Bang.2009.DVDRip.Xvid.TA.part48.rar -
13.97 MB



Description



Slam.Bang.2009.DVDRip.Xvid.TA

http://i46.tinypic.com/29nfll5.jpg



http://www.imdb.com/title/tt1424845/

Forced by a corrupt Chinese man to steal information off a computer, an affable IT guy - George -

finds himself surrounded by violence and mayhem as he tries to get the disc with information to the

crime lord. Thwarted each step of the way by ruthless killers determined to stop him, George must race

against time to save his girlfriend's life. But he soon learns that it will take more then guts to

survive the day

General
Complete name : Slam.Bang.2009.DVDRip.Xvid.TA.avi
Format : AVI
Format/Info : Audio Video Interleave
File size : 762 MiB
Duration : 1h 22mn
Overall bit rate : 1 288 Kbps
Writing library : VirtualDub build 32661/release

Video
ID : 0
Format : MPEG-4 Visual
Format profile : [email protected]
Format settings, BVOP : Yes
Format settings, QPel : No
Format settings, GMC : No warppoints
Format settings, Matrix : Custom
Muxing mode : Packed bitstream
Codec ID : XVID
Codec ID/Hint : XviD
Duration : 1h 22mn
Bit rate : 1 150 Kbps
Width : 560 pixels
Height : 314 pixels
Display aspect ratio : 16:9
Frame rate : 23.976 fps
Resolution : 24 bits
Colorimetry : 4:2:0
Scan type : Progressive
Bits/(Pixel*Frame) : 0.273
Stream size : 681 MiB (89%)
Writing library : XviD 1.2.1 (UTC 2008-12-04)

Audio
ID : 1
Format : MPEG Audio
Format version : Version 1
Format profile : Layer 3
Codec ID : 55
Codec ID/Hint : MP3
Duration : 1h 22mn
Bit rate mode : Constant
Bit rate : 128 Kbps
Channel(s) : 2 channels
Sampling rate : 44.1 KHz
Resolution : 16 bits
Stream size : 75.8 MiB (10%)
Alignment : Split accross interleaves
Interleave, duration : 42 ms (1.00 video frame)
Interleave, preload duration : 500 ms


NOTES: Thanks to a crack whore in Vegas for the source. Her name is xxxOBSCENExxx.HAHAHA just

kidding, SHE HAS NOTHING!!! (But i hear she got a pretty mouth)


Screens

http://i50.tinypic.com/vykuc8.jpg

http://i45.tinypic.com/mrv5vb.jpg

http://i50.tinypic.com/2eq6m4z.jpg

http://i50.tinypic.com/vpen84.jpg


Related torrents

Torrent NameAddedSizeSeedLeechHealth
1 Year+ - in Movies784.1 MB2227
1 Year+ - in Movies832.83 MB00
1 Year+ - in Movies1.65 GB01
1 Year+ - in Movies765.65 MB2014
1 Year+ - in Music174.55 MB5849
1 Year+ - in Movies765.65 MB00

Comments (0 Comments)




Please login or create a FREE account to post comments

Latest Searches

| vinegar and salt | 5 Aside | poco pickin up the pieces | fabolous the young o g | simple minds | the original love | mary balogh the secret pearl | AmateurCFNM Tammie Lee Show Me Bitch 1080p MP4 KTR April 26 2016 NEW | DarkX Riley | brooke bliss thisgirlsucks |