Quick Browse
Movies
TV shows
Music
Games
Applications
Anime
Other
Facebook
Advertising

Friends
Torrent Download
Movie4u
1337x.to
Torrent Downloads




Slam Bang - 2009 - DVDRip - Xvid.TA


    Seeders : 0      Leechers : 0
Hash :008F6FCCFDC8D676B2D0206F7B7BC382D682703E
Added :1 Year+ in Movies
Size :765.93 MB
Stream :WATCH ONLINE @ Movie4u


Slam Bang - 2009 - DVDRip - Xvid.TA
Free and Fast Download with Usenet 300GB+ free







Trackers List

Tracker NameLast CheckStatusSeedersLeechers




Torrent File Content (3 files)


Slam.Bang.2009.DVDRip.Xvid
     Sample.avi -
3.19 MB

     Slam.Bang.2009.DVDRip.Xvid.TA.avi -
762.46 MB

     poster.png -
289.25 KB



Description



Description

TiTLE......[ Slam-Bang
YEAR.......[ 2009
GENRE......[ Action | Crime
RUNTiME....[ 1:22:47
iMDB RATE..[ User Rating:..
iMDB URL...[ http://www.imdb.com/title/tt1424845/

General
Complete name : Slam.Bang.2009.DVDRip.Xvid.TA.avi
Format : AVI
Format/Info : Audio Video Interleave
File size : 762 MiB
Duration : 1h 22mn
Overall bit rate : 1 288 Kbps
Writing library : VirtualDub build 32661/release

Video
ID : 0
Format : MPEG-4 Visual
Format profile : [email protected]
Format settings, BVOP : Yes
Format settings, QPel : No
Format settings, GMC : No warppoints
Format settings, Matrix : Custom
Muxing mode : Packed bitstream
Codec ID : XVID
Codec ID/Hint : XviD
Duration : 1h 22mn
Bit rate : 1 150 Kbps
Width : 560 pixels
Height : 314 pixels
Display aspect ratio : 16:9
Frame rate : 23.976 fps
Resolution : 24 bits
Colorimetry : 4:2:0
Scan type : Progressive
Bits/(Pixel*Frame) : 0.273
Stream size : 681 MiB (89%)
Writing library : XviD 1.2.1 (UTC 2008-12-04)

Audio
ID : 1
Format : MPEG Audio
Format version : Version 1
Format profile : Layer 3
Codec ID : 55
Codec ID/Hint : MP3
Duration : 1h 22mn
Bit rate mode : Constant
Bit rate : 128 Kbps
Channel(s) : 2 channels
Sampling rate : 44.1 KHz
Resolution : 16 bits
Stream size : 75.8 MiB (10%)
Alignment : Split accross interleaves
Interleave, duration : 42 ms (1.00 video frame)
Interleave, preload duration : 500 ms

Related torrents

Torrent NameAddedSizeSeedLeechHealth
1 Year+ - in Movies765.65 MB00
1 Year+ - in Movies765.65 MB2014
1 Year+ - in Movies776.53 MB199
1 Year+ - in Movies762.04 MB00
1 Year+ - in Movies700.96 MB2623

Comments (0 Comments)




Please login or create a FREE account to post comments

Latest Searches

| hotlegsandfeet harmony | sydney hevc | DECEMBER DMC | babysitter with mother | dakota ford oliver saxon raw | soe 480 avi | 08 2016 BB The Bold and The Beautiful | ian mcewan the innocent | karupsha layla london | New Girl S06E09 avi |