Quick Browse
Movies
TV shows
Music
Games
Applications
Anime
Other
Facebook
Advertising

Friends
Torrent Download
Movie4u
1337x.to
Torrent Downloads




Verified torrent Sleeping Beauty (2011) - English Movie - R5


    Seeders : 1      Leechers : 54
Hash :10B5EB5A87B6C7ECAC6D910B0935DB81642B0122
Added :1 Year+ by supersurfVerified torrent uploader in Movies
Size :1.37 GB
Stream :WATCH ONLINE @ Movie4u


Sleeping Beauty (2011) - English Movie - R5
Free and Fast Download with Usenet 300GB+ free







Trackers List

Tracker NameLast CheckStatusSeedersLeechers




Torrent File Content (96 files)


Sleeping Beauty 2011 R5 XVID AC3 - SPEEDY
     Sleeping Beauty 2011 R5 XVID AC3 - SPEEDY.part046.rar -
15 MB

     Sleeping Beauty 2011 R5 XVID AC3 - SPEEDY.part044.rar -
15 MB

     Sleeping Beauty 2011 R5 XVID AC3 - SPEEDY.part092.rar -
15 MB

     Sleeping Beauty 2011 R5 XVID AC3 - SPEEDY.part001.rar -
15 MB

     Sleeping Beauty 2011 R5 XVID AC3 - SPEEDY.part002.rar -
15 MB

     Sleeping Beauty 2011 R5 XVID AC3 - SPEEDY.part003.rar -
15 MB

     Sleeping Beauty 2011 R5 XVID AC3 - SPEEDY.part004.rar -
15 MB

     Sleeping Beauty 2011 R5 XVID AC3 - SPEEDY.part005.rar -
15 MB

     Sleeping Beauty 2011 R5 XVID AC3 - SPEEDY.part006.rar -
15 MB

     Sleeping Beauty 2011 R5 XVID AC3 - SPEEDY.part007.rar -
15 MB

     Sleeping Beauty 2011 R5 XVID AC3 - SPEEDY.part008.rar -
15 MB

     Sleeping Beauty 2011 R5 XVID AC3 - SPEEDY.part009.rar -
15 MB

     Sleeping Beauty 2011 R5 XVID AC3 - SPEEDY.part010.rar -
15 MB

     Sleeping Beauty 2011 R5 XVID AC3 - SPEEDY.part011.rar -
15 MB

     Sleeping Beauty 2011 R5 XVID AC3 - SPEEDY.part012.rar -
15 MB

     Sleeping Beauty 2011 R5 XVID AC3 - SPEEDY.part013.rar -
15 MB

     Sleeping Beauty 2011 R5 XVID AC3 - SPEEDY.part014.rar -
15 MB

     Sleeping Beauty 2011 R5 XVID AC3 - SPEEDY.part015.rar -
15 MB

     Sleeping Beauty 2011 R5 XVID AC3 - SPEEDY.part016.rar -
15 MB

     Sleeping Beauty 2011 R5 XVID AC3 - SPEEDY.part017.rar -
15 MB

     Sleeping Beauty 2011 R5 XVID AC3 - SPEEDY.part018.rar -
15 MB

     Sleeping Beauty 2011 R5 XVID AC3 - SPEEDY.part019.rar -
15 MB

     Sleeping Beauty 2011 R5 XVID AC3 - SPEEDY.part020.rar -
15 MB

     Sleeping Beauty 2011 R5 XVID AC3 - SPEEDY.part021.rar -
15 MB

     Sleeping Beauty 2011 R5 XVID AC3 - SPEEDY.part022.rar -
15 MB

     Sleeping Beauty 2011 R5 XVID AC3 - SPEEDY.part023.rar -
15 MB

     Sleeping Beauty 2011 R5 XVID AC3 - SPEEDY.part024.rar -
15 MB

     Sleeping Beauty 2011 R5 XVID AC3 - SPEEDY.part025.rar -
15 MB

     Sleeping Beauty 2011 R5 XVID AC3 - SPEEDY.part026.rar -
15 MB

     Sleeping Beauty 2011 R5 XVID AC3 - SPEEDY.part027.rar -
15 MB

     Sleeping Beauty 2011 R5 XVID AC3 - SPEEDY.part028.rar -
15 MB

     Sleeping Beauty 2011 R5 XVID AC3 - SPEEDY.part029.rar -
15 MB

     Sleeping Beauty 2011 R5 XVID AC3 - SPEEDY.part030.rar -
15 MB

     Sleeping Beauty 2011 R5 XVID AC3 - SPEEDY.part031.rar -
15 MB

     Sleeping Beauty 2011 R5 XVID AC3 - SPEEDY.part032.rar -
15 MB

     Sleeping Beauty 2011 R5 XVID AC3 - SPEEDY.part033.rar -
15 MB

     Sleeping Beauty 2011 R5 XVID AC3 - SPEEDY.part034.rar -
15 MB

     Sleeping Beauty 2011 R5 XVID AC3 - SPEEDY.part035.rar -
15 MB

     Sleeping Beauty 2011 R5 XVID AC3 - SPEEDY.part036.rar -
15 MB

     Sleeping Beauty 2011 R5 XVID AC3 - SPEEDY.part037.rar -
15 MB

     Sleeping Beauty 2011 R5 XVID AC3 - SPEEDY.part038.rar -
15 MB

     Sleeping Beauty 2011 R5 XVID AC3 - SPEEDY.part039.rar -
15 MB

     Sleeping Beauty 2011 R5 XVID AC3 - SPEEDY.part040.rar -
15 MB

     Sleeping Beauty 2011 R5 XVID AC3 - SPEEDY.part041.rar -
15 MB

     Sleeping Beauty 2011 R5 XVID AC3 - SPEEDY.part042.rar -
15 MB

     Sleeping Beauty 2011 R5 XVID AC3 - SPEEDY.part043.rar -
15 MB

     Sleeping Beauty 2011 R5 XVID AC3 - SPEEDY.part090.rar -
15 MB

     Sleeping Beauty 2011 R5 XVID AC3 - SPEEDY.part045.rar -
15 MB

     Sleeping Beauty 2011 R5 XVID AC3 - SPEEDY.part091.rar -
15 MB

     Sleeping Beauty 2011 R5 XVID AC3 - SPEEDY.part047.rar -
15 MB

+ Show all torrent content...

Description





Sleeping Beauty (2011) - English Movie - R5




IMDB: http://www.imdb.com/title/tt1588398/




General


Complete name : Sleeping Beauty 2011 R5 XVID AC3 - SPEEDY.avi
Format : AVI
Format/Info : Audio Video Interleave
Format profile : OpenDML
Format settings : rec
File size : 1.36 GiB
Duration : 1h 37mn
Overall bit rate : 2 001 Kbps





Video


ID : 0
Format : MPEG-4 Visual
Format profile : Advanced [email protected]
Format settings, BVOP : 2
Format settings, QPel : No
Format settings, GMC : No warppoints
Format settings, Matrix : Default (H.263)
Codec ID : XVID
Codec ID/Hint : XviD
Duration : 1h 37mn
Bit rate : 1 612 Kbps
Width : 720 pixels
Height : 384 pixels
Display aspect ratio : 1.875
Frame rate : 25.000 fps
Color space : YUV
Chroma subsampling : 4:2:0
Bit depth : 8 bits
Scan type : Progressive
Compression mode : Lossy
Bits/(Pixel*Frame) : 0.233
Stream size : 1.10 GiB (81%)






Audio


ID : 1
Format : AC-3
Format/Info : Audio Coding 3
Mode extension : CM (complete main)
Codec ID : 2000
Duration : 1h 37mn
Bit rate mode : Constant
Bit rate : 384 Kbps
Channel(s) : 6 channels
Channel positions : Front: L C R, Side: L R, LFE
Sampling rate : 48.0 KHz
Bit depth : 16 bits
Compression mode : Lossy
Stream size : 268 MiB (19%)
Alignment : Aligned on interleaves
Interleave, duration : 64 ms (1.60 video frames)
Interleave, preload duration : 192 ms
AUDIO: ENGLISH
SUBS: NON






PLOT
Storyline

A haunting portrait of Lucy, a young university student drawn into a mysterious hidden

world of unspoken desires.


Genres: Drama


Director: Julia Leigh

Writer: Julia Leigh (screenplay)

Stars: Emily Browning, Rachael Blake and Ewen Leslie




SOURCE
Video : DVD9 R5
Audio : DVD9 R5


SCREEN TOUCH UP: Tweak(hue / sat / bright / cont / Sharpen

I CROPPED n resized n increase the gamma (relative brightness) of the video
Levels




IF YOU ENJOY THIS PLEAS REP ME ENJOY FOLKS


ScReeN SHoTs


http://www.grinshare.com/img/LC8WDR.jpeg

http://www.grinshare.com/img/KK6P5T.jpeg

http://www.grinshare.com/img/WIK7I7.jpeg

http://www.grinshare.com/img/6OA3KV.jpeg


CRedits: To ORginal REleaser

Related torrents

Torrent NameAddedSizeSeedLeechHealth
1 Year+ - in Movies4.16 GB00
1 Year+ - in Movies800.95 MB111
1 Year+ - in Movies1.63 GB356
1 Year+ - in Movies1.43 GB01
1 Year+ - in Movies400.71 MB00

Comments (0 Comments)




Please login or create a FREE account to post comments

Latest Searches

| petes dragon avc | amos lee 2016 | my sister has big round ass | chrome dreams u k | RealWifeStories Romi Rain My Pudgy Husband My Whorish Wife 264 | The Economist 2016 May epub | KNOT IN MY BACKYARD Mary Marks | reason refills megapack | REPO MEN JUDE LAW | Danielle Bradbery |