Quick Browse
Movies
TV shows
Music
Games
Applications
Anime
Other
Facebook
Advertising

Friends
Torrent Download
Movie4u
1337x.to
Torrent Downloads




Verified torrent Smallville.10x09-11.ITA_ENG.DLmux-DarkSideMux-[IDN_CREW]


    Seeders : 1      Leechers : 4

Trackers List

Tracker NameLast CheckStatusSeedersLeechers




Torrent File Content (4 files)


Smallville.10x09-11.ITA_ENG.DLmux-DarkSideMux-[IDN_CREW]
     IDN_CREW Leggimi.txt -
294 bytes

     Smallville.10x09.Patriota.ITA_ENG.DLmux-DarkSideMux.avi -
399.11 MB

     Smallville.10x10.Luthor.ITA_ENG.DLmux-DarkSideMux.avi -
397.77 MB

     Smallville.10x11.Operazione.Icaro.ITA_ENG.DLmux-DarkSideMux.avi -
399.39 MB



Description



http://1.bp.blogspot.com/-MMmHcPGBRNI/Te2XUSLYwMI/AAAAAAAABUE/HVDR5EkQ6a0/s1600/10.jpg



[b][i][color=red]SMALLVILLE STAGIONE 10
Versione: DLMux ITA/ENG by DarkSideMux[/color]

http://img514.imageshack.us/img514/1502/inforelease.png


[color=black]Titolo:[/color] Smallville
[color=black]Anno: [/color]2010
[color=beige]Nazionalità: [/color]United States
[color=black]Genere:[/color] Azione - Fantastico
[color=black]Lingua:[/color] Italiano/Inglese
[color=black]Stagione:[/color] 10
[color=blqck]Episodi:[/color] 22
[color=black]Durata Episodio:[/color] 42 min ca (episodio)
[color=black]Ideatore:[/color] Alfred Gough e Miles Millar
[color=black]Produzione:[/color] Smallville Films, Tollin/Robbins Productions e Warner Bros. Television
[color=black]Fonti:[/color] [color=red] http://it.wikipedia.org/wiki/Smallville_(serie_televisiva)#Episodi [/color]

http://img685.imageshack.us/img685/5835/casta.png


Tom Welling: Clark Kent
Allison Mack: Chloe Sullivan
Michael Rosenbaum: Lex Luthor
Kristin Kreuk: Lana Lang
Erica Durance: Lois Lane
John Schneider: Jonathan Kent
Annette O'Toole: Martha Kent
John Glover: Lionel Luthor
Justin Hartley: Oliver Queen
Samuel Jones III: Pete Ross
Aaron Ashmore: Jimmy Olsen
Laura Vandervoort: Kara
Cassidy Freeman: Tess Mercer
Sam Witwer: Davis Bloome
Jensen Ackles: Jason Teague
Eric Johnson: Whitney Fordman
Callum Blue: Maggiore Zod


http://img153.imageshack.us/img153/7608/tramao.png


[color=beige] 16 ottobre 1989. Una catastrofica pioggia di meteoriti contenenti un minerale radioattivo, la kryptonite, si abbatte sulla cittadina di Smallville contaminandone gli abitanti, che iniziano a presentare particolari mutazioni genetiche. Più di dieci anni più tardi, Chloe Sullivan e Clark Kent, giornalisti in erba del liceo di Smallville, indagano su questi eventi inspiegabili fino a trovarsi più di una volta invischiati nei loschi piani di Lionel Luthor, padre di Lex, che non sembra avere particolari problemi a spingersi fino all'omicidio per tentare di nascondere i propri affari. La prima stagione è incentrata sul cosiddetto "mostro della settimana" (un essere umano colpito dagli effetti della pioggia di meteoriti) che usa i suoi poteri per fini malvagi e che viene affrontato dal giovane Kent nel corso di un solo episodio. Dalla seconda stagione si affrontano piccoli archi narrativi (accompagnati sempre dal cattivo della settimana), che diventano sempre più complessi col passare delle stagioni.Fino ad arrivare alla decima ed ultima stagione in cui troviamo Clark Kent a combattere con le responsabilità che comportano i suoi superpoteri, sulla minaccia di un nuovo nemico e su un particolare ritorno.[/color]

http://img864.imageshack.us/img864/7976/episodi.png


[color=black]1×01 Resurrezione
1×02 Scudo
1×03 Supergirl
1×04 Rimpatriata
1×05 Iside
1×06 Il Raccolto
1×07 L’Imboscata
1×08 Abbandonata
1×09 …….
1×10 …….
1x11 …….
1×12 …….
……..
[/color]

http://img529.imageshack.us/img529/7286/datifile.png


General
Complete name : Smallville.10x11.Operazione.Icaro.ITA_ENG.DLmux-DarkSideMux.avi
Format : AVI
Format/Info : Audio Video Interleave
File size : 399 MiB
Duration : 40mn 42s
Overall bit rate : 1 372 Kbps
Writing application : VirtualDubMod 1.5.10.2 (build 2542/release)
Writing library : VirtualDubMod build 2542/release

Video
Format : MPEG-4 Visual
Format profile : Streaming [email protected]
Format settings, BVOP : Yes
Format settings, QPel : No
Format settings, GMC : No warppoints
Format settings, Matrix : Custom
Codec ID : XVID
Codec ID/Hint : XviD
Duration : 40mn 42s
Bit rate : 1 119 Kbps
Width : 624 pixels
Height : 352 pixels
Display aspect ratio : 16/9
Frame rate : 25.000 fps
Resolution : 24 bits
Colorimetry : 4:2:0
Scan type : Progressive
Bits/(Pixel*Frame) : 0.204
Stream size : 326 MiB (82%)
Writing library : XviD 50

Audio #1
Format : MPEG Audio
Format version : Version 1
Format profile : Layer 3
Codec ID : 55
Codec ID/Hint : MP3
Duration : 40mn 42s
Bit rate mode : Variable
Bit rate : 121 Kbps
Nominal bit rate : 126 Kbps
Channel(s) : 2 channels
Sampling rate : 48.0 KHz
Resolution : 16 bits
Stream size : 35.2 MiB (9%)
Alignment : Aligned on interleaves
Interleave, duration : 24 ms (0.60 video frame)
Interleave, preload duration : 486 ms
Writing library : LAME3.90.
Encoding settings : ABR

Audio #2
Format : MPEG Audio
Format version : Version 1
Format profile : Layer 3
Codec ID : 55
Codec ID/Hint : MP3
Duration : 40mn 42s
Bit rate mode : Variable
Bit rate : 112 Kbps
Channel(s) : 2 channels
Sampling rate : 44.1 KHz
Resolution : 16 bits
Stream size : 32.5 MiB (8%)
Alignment : Aligned on interleaves
Interleave, duration : 26 ms (0.65 video frame)
Interleave, preload duration : 497 ms
Writing library : LAME3.90.
Encoding settings : ABR



http://img20.imageshack.us/img20/4974/screenshotsph.png


http://img440.imageshack.us/img440/7796/thumbs20111005130000.jpg


Ringraziamenti: DarkSideMux per la realizzazione degli episodi

Related torrents

Torrent NameAddedSizeSeedLeechHealth
1 Year+ - in TV shows2.74 GB00
1 Year+ - in TV shows1.34 GB17
9 days ago - in TV shows9.29 GB00
5 months ago - in TV shows4.07 GB1116
6 months ago - in TV shows4.22 GB1158

Comments (0 Comments)




Please login or create a FREE account to post comments

Latest Searches

| spit cum teen | brazzers male | nemesis dimension | marvel week 12 7 2016 | rod Stewart Im sexy | Yip Man 2 2 | 60 team | 2 become 2 | kami garcia margaret | someone else i |