Quick Browse
Movies
TV shows
Music
Games
Applications
Anime
Other
Facebook
Advertising

Friends
Torrent Download
Movie4u
1337x.to
Torrent Downloads




Verified torrent Smallville 10x12-14 ITA_ENG DLmux-DarkSideMux-[IDN_CREW]


    Seeders : 1      Leechers : 0

Trackers List

Tracker NameLast CheckStatusSeedersLeechers




Torrent File Content (4 files)


Smallville.10x12-14.ITA_ENG.DLmux-DarkSideMux-[IDN_CREW]
     IDN_CREW Leggimi.txt -
294 bytes

     Smallville.10x12.Danni.collaterali.ITA_ENG.DLmux-DarkSideMux.avi -
399.41 MB

     Smallville.10x13.Il.faro.ITA_ENG.DLmux-DarkSideMux.avi -
397.97 MB

     Smallville.10x14.Messinscena.ITA_ENG.DLmux-DarkSideMux.avi -
400.08 MB



Description



http://1.bp.blogspot.com/-MMmHcPGBRNI/Te2XUSLYwMI/AAAAAAAABUE/HVDR5EkQ6a0/s1600/10.jpg



[b][i][color=red]SMALLVILLE STAGIONE 10
Versione: DLMux ITA/ENG by DarkSideMux[/color]

http://img514.imageshack.us/img514/1502/inforelease.png


[color=red]Titolo:[/color] Smallville
[color=red]Anno: [/color]2010
[color=red]Nazionalità: [/color]United States
[color=red]Genere:[/color] Azione - Fantastico
[color=red]Lingua:[/color] Italiano/Inglese
[color=red]Stagione:[/color] 10
[color=red]Episodi:[/color] 22
[color=red]Durata Episodio:[/color] 42 min ca (episodio)
[color=red]Ideatore:[/color] Alfred Gough e Miles Millar
[color=red]Produzione:[/color] Smallville Films, Tollin/Robbins Productions e Warner Bros. Television
[color=red]Fonti:[/color] [color=red] http://it.wikipedia.org/wiki/Smallville_(serie_televisiva)#Episodi [/color]

http://img685.imageshack.us/img685/5835/casta.png


Tom Welling: Clark Kent
Allison Mack: Chloe Sullivan
Michael Rosenbaum: Lex Luthor
Kristin Kreuk: Lana Lang
Erica Durance: Lois Lane
John Schneider: Jonathan Kent
Annette O'Toole: Martha Kent
John Glover: Lionel Luthor
Justin Hartley: Oliver Queen
Samuel Jones III: Pete Ross
Aaron Ashmore: Jimmy Olsen
Laura Vandervoort: Kara
Cassidy Freeman: Tess Mercer
Sam Witwer: Davis Bloome
Jensen Ackles: Jason Teague
Eric Johnson: Whitney Fordman
Callum Blue: Maggiore Zod


http://img153.imageshack.us/img153/7608/tramao.png


[color=teal] 16 ottobre 1989. Una catastrofica pioggia di meteoriti contenenti un minerale radioattivo, la kryptonite, si abbatte sulla cittadina di Smallville contaminandone gli abitanti, che iniziano a presentare particolari mutazioni genetiche. Più di dieci anni più tardi, Chloe Sullivan e Clark Kent, giornalisti in erba del liceo di Smallville, indagano su questi eventi inspiegabili fino a trovarsi più di una volta invischiati nei loschi piani di Lionel Luthor, padre di Lex, che non sembra avere particolari problemi a spingersi fino all'omicidio per tentare di nascondere i propri affari. La prima stagione è incentrata sul cosiddetto "mostro della settimana" (un essere umano colpito dagli effetti della pioggia di meteoriti) che usa i suoi poteri per fini malvagi e che viene affrontato dal giovane Kent nel corso di un solo episodio. Dalla seconda stagione si affrontano piccoli archi narrativi (accompagnati sempre dal cattivo della settimana), che diventano sempre più complessi col passare delle stagioni.Fino ad arrivare alla decima ed ultima stagione in cui troviamo Clark Kent a combattere con le responsabilità che comportano i suoi superpoteri, sulla minaccia di un nuovo nemico e su un particolare ritorno.[/color]

http://img864.imageshack.us/img864/7976/episodi.png


[color=teal]1×01 Resurrezione
1×02 Scudo
1×03 Supergirl
1×04 Rimpatriata
1×05 Iside
1×06 Il Raccolto
1×07 L’Imboscata
1×08 Abbandonata
1×09 …….
1×10 …….
1x11 …….
1×12 …….
……..
[/color]

http://img529.imageshack.us/img529/7286/datifile.png


General
Complete name : Smallville.10x14.Messinscena.ITA_ENG.DLmux-DarkSideMux.avi
Format : AVI
Format/Info : Audio Video Interleave
File size : 400 MiB
Duration : 40mn 43s
Overall bit rate : 1 373 Kbps
Writing application : VirtualDubMod 1.5.10.2 (build 2542/release)
Writing library : VirtualDubMod build 2542/release

Video
Format : MPEG-4 Visual
Format profile : Streaming [email protected]
Format settings, BVOP : Yes
Format settings, QPel : No
Format settings, GMC : No warppoints
Format settings, Matrix : Custom
Codec ID : XVID
Codec ID/Hint : XviD
Duration : 40mn 43s
Bit rate : 1 118 Kbps
Width : 624 pixels
Height : 352 pixels
Display aspect ratio : 16/9
Frame rate : 25.000 fps
Resolution : 24 bits
Colorimetry : 4:2:0
Scan type : Progressive
Bits/(Pixel*Frame) : 0.204
Stream size : 326 MiB (81%)
Writing library : XviD 50

Audio #1
Format : MPEG Audio
Format version : Version 1
Format profile : Layer 3
Codec ID : 55
Codec ID/Hint : MP3
Duration : 40mn 43s
Bit rate mode : Variable
Bit rate : 122 Kbps
Channel(s) : 2 channels
Sampling rate : 48.0 KHz
Resolution : 16 bits
Stream size : 35.5 MiB (9%)
Alignment : Aligned on interleaves
Interleave, duration : 24 ms (0.60 video frame)
Interleave, preload duration : 338 ms

Audio #2
Format : MPEG Audio
Format version : Version 1
Format profile : Layer 3
Codec ID : 55
Codec ID/Hint : MP3
Duration : 40mn 43s
Bit rate mode : Variable
Bit rate : 113 Kbps
Channel(s) : 2 channels
Sampling rate : 48.0 KHz
Resolution : 16 bits
Stream size : 32.8 MiB (8%)
Alignment : Aligned on interleaves
Interleave, duration : 24 ms (0.60 video frame)
Interleave, preload duration : 170 ms




http://img20.imageshack.us/img20/4974/screenshotsph.png


http://img440.imageshack.us/img440/7796/thumbs20111005130000.jpg


Ringraziamenti: DarkSideMux per la realizzazione degli episodi

Related torrents

Torrent NameAddedSizeSeedLeechHealth
1 Year+ - in TV shows1.34 GB17
1 Year+ - in TV shows1.4 GB214
1 Year+ - in TV shows1.33 GB00
1 Year+ - in TV shows1.4 GB00
1 Year+ - in TV shows3.37 GB00

Comments (0 Comments)




Please login or create a FREE account to post comments

Latest Searches

| BangBros18 Michelle Martinez Gets Her Pussy Pounded | busty liana | Shut Eye S01E07 WEB H264 DEFLATEettv | 2017 underworld | r b for lovers vol 2 | sexart morning bed | YWFT font | Flatliners hindi 1990 | DaneJones Yenna Black | nao e sobre |