Quick Browse
Movies
TV shows
Music
Games
Applications
Anime
Other
Facebook
Advertising

Friends
Torrent Download
Movie4u
1337x.to
Torrent Downloads




Sniper.4.Bersaglio.Mortale.2011.iTALiAN.AC3.5.1.720p.BDRip.XviD-[TrTd_CREW]


    Seeders : 0      Leechers : 1

Trackers List

Tracker NameLast CheckStatusSeedersLeechers
http://tracker.trackerfix.com/announce1 Year+success00
http://bigfoot1942.sektori.org:6969/announce1 Year+success00
http://tracker.nwps.ws:6969/announce1 Year+success00
http://announce.torrentsmd.com:6969/announce1 Year+success01
http://tracker.windsormetalbattery.com/announce1 Year+success00
http://torrent.gresille.org/announce1 Year+success00
udp://tracker.coppersurfer.tk:801 Year+success01
udp://open.demonii.com:1337/announce1 Year+success00




Torrent File Content (3 files)


Sniper.4.Bersaglio.Mortale.2011.iTALiAN.AC3.5.1.720p.BDRip.XviD-[TrTd_CREWt]
     Sniper.4.Bersaglio.Mortale.2011.iTALiAN.AC3.5.1.720p.BDRip.XviD-[TrTd_CREWt].avi -
1.4 GB

     presentazione.rtf -
30.64 KB

     presentazione.txt -
266 bytes



Description




http://www.torrented.org/public/phpbb3/images/presenta.png


http://img808.imageshack.us/img808/7353/newprojectlh.png


http://img4.imageshack.us/img4/4601/sniper4d.png




http://www.torrented.org/public/phpbb3/images/info%20film.png


[color=red]Titolo:[/color] Sniper 4. Bersaglio mortale
[color=red]Regista:[/color] Claudio Fäh
[color=red]Attori:[/color] Chad Michael Collins Patrick Lyster Richard Sammell Billy Zane
[color=red]Produttore:[/color] Sony Pictures
[color=red]Genere: [/color] Avventura
[color=red]Anno di produzione:[/color] 2011
[color=red]AUDIO: [/color]ITALIANO

[spoiler]General
Count : 259
Count of stream of this kind : 1
Kind of stream : General
Kind of stream : General
Stream identifier : 0
Count of video streams : 1
Count of audio streams : 1
Video_Format_List : MPEG-4 Visual
Video_Format_WithHint_List : MPEG-4 Visual (XviD)
Codecs Video : XviD
Audio_Format_List : AC-3
Audio_Format_WithHint_List : AC-3
Audio codecs : AC3
Complete name : Sniper.4.Bersaglio.Mortale.2011.iTALiAN.AC3.5.1.720p.BDRip.XviD-[TrTd_CREW]\Sniper.4.Bersaglio.Mortale.2011.iTALiAN.AC3.5.1.720p.BDRip.XviD-[TrTd_CREW].avi
Folder name : Sniper.4.Bersaglio.Mortale.2011.iTALiAN.AC3.5.1.720p.BDRip.XviD-[TrTd_CREW]
File name : Sniper.4.Bersaglio.Mortale.2011.iTALiAN.AC3.5.1.720p.BDRip.XviD-[TrTd_CREW]
File extension : avi
Format : AVI
Format : AVI
Format/Info : Audio Video Interleave
Format/Extensions usually used : avi
Interleaved : Yes
Codec : AVI
Codec : AVI
Codec/Info : Audio Video Interleave
Codec/Extensions usually used : avi
File size : 1506805760
File size : 1.40 GiB
File size : 1 GiB
File size : 1.4 GiB
File size : 1.40 GiB
File size : 1.403 GiB
Duration : 5259168
Duration : 1h 27mn
Duration : 1h 27mn 39s 168ms
Duration : 1h 27mn
Duration : 01:27:39.168
Overall bit rate : 2292082
Overall bit rate : 2 292 Kbps
Stream size : 6472721
Stream size : 6.17 MiB (0%)
Stream size : 6 MiB
Stream size : 6.2 MiB
Stream size : 6.17 MiB
Stream size : 6.173 MiB
Stream size : 6.17 MiB (0%)
Proportion of this stream : 0.00430
File creation date : UTC 2011-05-15 22:08:53.168
File creation date (local) : 2011-05-16 00:08:53.168
File last modification date : UTC 2011-05-15 23:54:57.552
File last modification date (loc : 2011-05-16 01:54:57.552
Writing application : VirtualDubMod 1.5.10.2 (build 2542/release)
Writing library : VirtualDubMod build 2542/release
Writing library : VirtualDubMod build 2542/release

Video
Count : 148
Count of stream of this kind : 1
Kind of stream : Video
Kind of stream : Video
Stream identifier : 0
ID : 0
ID : 0
Format : MPEG-4 Visual
Format profile : [email protected]
Format settings : BVOP
Format settings, BVOP : Yes
Format settings, BVOP : Yes
Format settings, QPel : No
Format settings, QPel : No
Format settings, GMC : 0
Format settings, GMC : No warppoints
Format settings, Matrix : Default (H.263)
Format settings, Matrix : Default (H.263)
Muxing mode : Packed bitstream
Codec ID : XVID
Codec ID/Hint : XviD
Codec ID/Url : http://mediaarea.net/XVID
Codec : XVID
Codec : XviD
Codec/Family : MPEG-4V
Codec/Info : XviD project
Codec/Url : http://www.xvid.org/Downloads.15.0.html
Codec/CC : XVID
Codec profile : [email protected]
Codec settings : BVOP / Packed Bitstream
Codec settings, Packet bitstream : Yes
Codec settings, BVOP : Yes
Codec settings, QPel : No
Codec settings, GMC : 0
Codec settings, GMC : No warppoints
Codec settings, Matrix : Default (H.263)
Duration : 5257840
Duration : 1h 27mn
Duration : 1h 27mn 37s 840ms
Duration : 1h 27mn
Duration : 01:27:37.840
Bit rate : 1898716
Bit rate : 1 899 Kbps
Width : 1280
Width : 1 280 pixels
Height : 692
Height : 692 pixels
Pixel aspect ratio : 1.000
Display aspect ratio : 1.850
Display aspect ratio : 1.850
Frame rate : 25.000
Frame rate : 25.000 fps
Frame count : 131446
Resolution : 24
Resolution : 24 bits
Colorimetry : 4:2:0
Scan type : Progressive
Scan type : Progressive
Interlacement : PPF
Interlacement : Progressive
Bits/(Pixel*Frame) : 0.086
Delay : 0
Stream size : 1247892975
Stream size : 1.16 GiB (83%)
Stream size : 1 GiB
Stream size : 1.2 GiB
Stream size : 1.16 GiB
Stream size : 1.162 GiB
Stream size : 1.16 GiB (83%)
Proportion of this stream : 0.82817
Writing library : XviD0050
Writing library : XviD 1.2.1 (UTC 2008-12-04)
Writing library/Name : XviD
Writing library/Version : 1.2.1
Writing library/Date : UTC 2008-12-04

Audio
Count : 129
Count of stream of this kind : 1
Kind of stream : Audio
Kind of stream : Audio
Stream identifier : 0
ID : 1
ID : 1
Format : AC-3
Format/Info : Audio Coding 3
Codec ID : 2000
Codec : AC3
Codec : AC3
Codec/Family : AC3
Codec/Info : Dolby AC3
Codec/CC : 2000
Duration : 5259168
Duration : 1h 27mn
Duration : 1h 27mn 39s 168ms
Duration : 1h 27mn
Duration : 01:27:39.168
Bit rate mode : CBR
Bit rate mode : Constant
Bit rate : 384000
Bit rate : 384 Kbps
Channel(s) : 6
Channel(s) : 6 channels
Channel positions : Front: L C R, Surround: L R, LFE
Channel positions : 3/2.1
Sampling rate : 48000
Sampling rate : 48.0 KHz
SamplingCount : 252440064
Delay : 22
Delay : 22ms
Delay : 22ms
Delay : 22ms
Delay : 00:00:00.022
Video delay : 22
Video delay : 22ms
Video delay : 22ms
Video delay : 22ms
Video delay : 00:00:00.022
Video0 delay : 22
Video0 delay : 22ms
Video0 delay : 22ms
Video0 delay : 22ms
Video0 delay : 00:00:00.022
Stream size : 252440064
Stream size : 241 MiB (17%)
Stream size : 241 MiB
Stream size : 241 MiB
Stream size : 241 MiB
Stream size : 240.7 MiB
Stream size : 241 MiB (17%)
Proportion of this stream : 0.16753
Alignment : Split
Alignment : Split accross interleaves
Interleave, duration : 1.00
Interleave, duration : 40
Interleave, duration : 40 ms (1.00 video frame)
Interleave, preload duration : 512
Interleave, preload duration : 512 ms[/spoiler]


http://www.torrented.org/public/phpbb3/images/trama.png


Dopo aver perso tutti i suoi compagni in un'imboscata, Brandon Beckett, figlio del più grande tiratore scelto di tutta l'America, per salvarsi la pelle dovrà mettere in pratica tutti gli insegnamenti del padre e cominciare a pensare come un vero cecchino



http://www.torrented.org/public/phpbb3/images/Screenshot.png


http://img577.imageshack.us/img577/9884/sniper4.jpg

Related torrents

Torrent NameAddedSizeSeedLeechHealth
Verified torrent
1 Year+ - in Movies1.56 GB120
1 Good
1 Year+ - in Movies858.17 MB41,067
1 Year+ - in Movies1.37 GB1078
1 Year+ - in Movies3.84 GB47358
1 Year+ - in Movies852.34 MB36

Comments (0 Comments)




Please login or create a FREE account to post comments

Latest Searches

| oddsox vocals | long hair hair japanese with nice ass uncensored | Toni Brazil | the first encounters | The Exorcist S01E09 | Gravity Hindi 3d | on the run Jay | oddsox hiphop | ea aac | joey bada devastated |