Quick Browse
Movies
TV shows
Music
Games
Applications
Anime
Other
Facebook
Advertising

Friends
Torrent Download
Movie4u
1337x.to
Torrent Downloads




Verified torrent Solitary Man [Converted - Ready To Burn DVD5] [ENG] [AC3] [Hannspree]


    Seeders : 4      Leechers : 2

Trackers List

Tracker NameLast CheckStatusSeedersLeechers




Torrent File Content (19 files)


Solitary Man
    Solitary Man [DVD]
          VIDEO_TS/VIDEO_TS.BUP -
12 KB

          VIDEO_TS/VIDEO_TS.IFO -
12 KB

          VIDEO_TS/VIDEO_TS.VOB -
58 KB

          VIDEO_TS/VTS_01_0.BUP -
62 KB

          VIDEO_TS/VTS_01_0.IFO -
62 KB

          VIDEO_TS/VTS_01_0.VOB -
58 KB

          VIDEO_TS/VTS_01_1.VOB -
1023.97 MB

          VIDEO_TS/VTS_01_2.VOB -
699.36 MB

    Solitary Man [Images]
          Solitary Man [Covers].jpg -
488.08 KB

          Solitary Man [Disc].jpg -
190.07 KB

          Solitary Man [Screens].jpg -
131.89 KB

     Solitary Man.NFO -
3.68 KB

     Torrent downloaded from Ahashare.com.txt -
47 bytes

     Torrent downloaded from Demonoid.com.txt -
47 bytes

     Torrent downloaded from Genesis-sp.org.txt -
49 bytes

     Torrent downloaded from H33t.org.txt -
43 bytes

     Torrent downloaded from Limetorrents.com.txt -
51 bytes

     Torrent downloaded from TorrentBucket.org.txt -
52 bytes

     Torrent downloaded from Torrentsnet.com.txt -
48 bytes



Description



=====================================================================================
[ Another free, high quality, ready to burn DVD I will be adding new torrents on a daily basis - Remember to seed ]
=====================================================================================
MOVIE TITLE:
LANGUAGE: English
MOVIE SUBS: No
BURN TESTED: Yes
FORMAT: Pal
GENRE: Comedy | Drama | Romance
RUNTIME: 87 Minutes
YEAR: 2009
IMDB LINK: http://www.imdb.com/title/tt1294213/
=====================================================================================
MOVIE DESC:

A car magnate watches his personal and professional life hit the skids because of his business and romantic indiscretions
=====================================================================================
MOVIE SPECS:

GENERAL:
Complete name : Solitary Man [DVD]
Format : MPEG-PS
File size : 1.68 GB
Duration : 87 Minutes
Overall bit rate : 2 778 Kbps

VIDEO:
ID : 224 (0xE0)
Format : MPEG Video
Format version : Version 2
Format profile : [email protected]
Format settings, BVOP : Yes
Format settings, Matrix : Default
Duration : 87 Minutes
Bit rate mode : Variable
Bit rate : 2 275 Kbps
Nominal bit rate : 9 352 Kbps
Width : 720 pixels
Height : 576 pixels
Display aspect ratio : 16:9
Frame rate : 25.000 fps
Standard : PAL
Color space : YUV
Chroma subsampling : 4:2:0
Bit depth : 8 bits
Scan type : Progressive
Bits/(Pixel*Frame) : 0.219
Stream size : 838 MiB (82%)

AUDIO:
ID : 128 (0x80)
Format : AC-3
Format/Info : Audio Coding 3
Mode extension : CM (complete main)
Duration : 87 Minutes
Bit rate mode : Constant
Bit rate : 448 Kbps
Channel(s) : 6 channels
Channel positions : Front: L C R, Side: L R, LFE
Sampling rate : 48.0 KHz
Stream size : 165 MiB (16%)
=====================================================================================
TRACKERS:
http://inferno.demonoid.com:3401/announce
http://www.genesis-sp.org:2710/announce
http://tracker.torrentbox.com:2710/announce
http://denis.stalker.h3q.com:6969/announce
http://nemesis.1337x.org/announce
http://exodus.1337x.org/announce
http://tracker.publicbt.com/announce
http://10.rarbg.com/announce
http://tracker.ilibr.org:6969/announce
http://rt.beeretracker.net/announce.php
http://torrentbucket.org/announce
http://red.tracker.prq.to/announce
=====================================================================================
[FOOT NOTE]
If you are happy with this download, it would be nice to hear your views or comments that you might have. Enjoy
=====================================================================================
Screens Shots Of Solitary Man

http://leetpic.com/images/solitaryma.jpg


Related torrents

Torrent NameAddedSizeSeedLeechHealth
Verified torrent
1 Year+ - in Movies2.32 GB110
Verified torrent
1 Year+ - in Movies1.63 GB03
Verified torrent
1 Year+ - in Movies2.14 GB28
Verified torrent
1 Year+ - in Movies869.42 MB55
Verified torrent
1 Year+ - in Movies2 GB02

Comments (0 Comments)




Please login or create a FREE account to post comments

Latest Searches

| Baba Servers | juelz santana ft lil wayne | x anal sex | yennamo yedho 2014 tamil mp3 acd rip vbr all songs 320kbs | confessioni proibite di dalila 1994 dvdrip | destiny no no | Baba Servers | bikini body guide help nutrition by | barbara park junie b jones and a little monkey business junie b jones 2 epub mobi | young small fuck |