Quick Browse
Movies
TV shows
Music
Games
Applications
Anime
Other
Facebook
Friends
Torrent Download
Movie4u
1337x.to
Torrent Downloads

Verified torrent Solstice [2008] [DVD] [AC3] [Hannspree]


    Seeders : 1      Leechers : 4
Hash :01F46BF1A030BB1A37B50F66F5C909CDDDBF65F2
Added :1 Year+ by HannspreeVerified torrent uploader in Movies
Size :1.51 GB
Stream :WATCH ONLINE @ Movie4u


Solstice [2008] [DVD] [AC3] [Hannspree]
Anonymous and Direct Download 300GB+ free








Trackers List

Tracker NameLast CheckStatusSeedersLeechers




Torrent File Content (11 files)


Solstice
    Solstice - [DVD]
          Solstice - Covers/Solstice - Cover.jpg -
141.8 KB

          Solstice - Covers/Solstice - Disc.jpg -
71.64 KB

          Solstice - DVD/VIDEO_TS/VIDEO_TS.BUP -
12 KB

          Solstice - DVD/VIDEO_TS/VIDEO_TS.IFO -
12 KB

          Solstice - DVD/VIDEO_TS/VIDEO_TS.VOB -
60 KB

          Solstice - DVD/VIDEO_TS/VTS_01_0.BUP -
62 KB

          Solstice - DVD/VIDEO_TS/VTS_01_0.IFO -
62 KB

          Solstice - DVD/VIDEO_TS/VTS_01_0.VOB -
60 KB

          Solstice - DVD/VIDEO_TS/VTS_01_1.VOB -
1023.97 MB

          Solstice - DVD/VIDEO_TS/VTS_01_2.VOB -
520.9 MB

     Solstice - [DVD].NFO -
6.97 KB



Description



=========================================================================================================================
[ Another free and high quality, ready to burn DVD - I will be adding new torrents on a daily basis - Remember to seed ]
=========================================================================================================================
MOVIE TITLE: Solstice
LANGUAGE: English
MOVIE SUBS: No - (subtitles if/when required)
BURN TESTED: Yes
FORMAT: Pal
GENRE: Drama | Horror | Thriller
RUNTIME: 88 Minutes
YEAR: 2008
IMDB LINK: http://www.imdb.com/title/tt0473267/
=========================================================================================================================
GENERAL MOVIE DESC:

Six months after the suicide of her twin sister Sofie, Megan still grieves her death and misses her beloved sister. In the Saint John's Eve, Megan travels with her friends Christian, Zoe, Mark and Alicia to her family's house in

Nowell Lake, Louisiana, to celebrate the summer solstice. While shopping supplies in a local store, Megan befriends the seller Nick and buys a magazine with an article about communication with the dead in the summer

solstice, the time of year when there is the greatest length of daylight.

While in her house, Megan is haunted by a spirit that she believes is Sofie trying to communicate with her. In her investigation, she suspects of the weird hick Leonard and while snooping in his house, she finds the picture of

the missing girl Malin and unravels a dark secret about the suicide of her sister.
=========================================================================================================================
GENERAL MOVIE SPECS:

Complete name : Solstice
Format : MPEG-PS
File size : 1.50 GB
Duration : 88 Minutes
Overall bit rate : 2 506 Kbps

VIDEO:
ID : 224 (0xE0)
Format : MPEG Video
Format version : Version 2
Format profile : [email protected]
Format settings, BVOP : Yes
Format settings, Matrix : Default
Duration : 88 Minutes
Bit rate mode : Variable
Bit rate : 2 264 Kbps
Nominal bit rate : 9 608 Kbps
Width : 720 pixels
Height : 576 pixels
Display aspect ratio : 16:9
Frame rate : 25.000 fps
Standard : PAL
Color space : YUV
Chroma subsampling : 4:2:0
Bit depth : 8 bits
Scan type : Progressive
Bits/(Pixel*Frame) : 0.218
Stream size : 925 MiB (90%)

AUDIO:
ID : 128 (0x80)
Format : AC-3
Format/Info : Audio Coding 3
Mode extension : CM (complete main)
Duration : 88 Minutes
Bit rate mode : Constant
Bit rate : 192 Kbps
Channel(s) : 2 channels
Channel positions : Front: L R
Sampling rate : 48.0 KHz
Stream size : 78.5 MiB (8%)
=========================================================================================================================

Related torrents

Torrent NameAddedSizeSeedLeechHealth
Verified torrent
1 Year+ - in Movies1.67 GB02
1 Year+ - in Movies3.59 GB19165
Verified torrent
1 Year+ - in Movies2.16 GB111
Verified torrent
1 Year+ - in Movies1.89 GB111
Verified torrent
1 Year+ - in Movies1.39 GB116

Comments (0 Comments)




Please login or create a FREE account to post comments

Latest Searches

| The nisargadatta | pretty ribbon | Anal for Schoolgirl | The Booty Movie 5 ArchAngel XXX 2017 WEB DL Split Scenes | get out sound | Home Alone 1990 tamil | Windows 8 1 Pro Activator multilanguage 32x64 | FitnessRooms 17 03 27 Erica Black Kira Zen And Terra Twain 1080p MP4 KTR | Aiseesoft video keygen | MilfHunter Sara St Clair Something About Sara |