Quick Browse
Movies
TV shows
Music
Games
Applications
Anime
Other
Facebook
Advertising

Friends
Torrent Download
Movie4u
1337x.to
Torrent Downloads




Verified torrent Something Borrowed CAM XViD - IMAGiNE


    Seeders : 550      Leechers : 169
Hash :7425FC76F7D4577F14788AA27A55330006B9454D
Added :1 Year+ by memory100Verified torrent uploader in Movies
Size :1.39 GB
Stream :WATCH ONLINE @ Movie4u


Something Borrowed CAM XViD - IMAGiNE
Free and Fast Download with Usenet 300GB+ free







Trackers List

Tracker NameLast CheckStatusSeedersLeechers




Torrent File Content (9 files)


Something Borred CAM XViD - IMAGiNE
     Budget seedboxs.txt -
44 bytes

     NW RG.nfo -
12.96 KB

     Somethiing Borred CAM XViD - IMAGiNE.avi -
1.37 GB

     Something Borred CAM XViD - SAMPLE.IMAGiNE.avi -
13.57 MB

     Something Borred CAM XViD - IMAGiNE.NFO -
4.83 KB

     Torrent downloaded from Demonoid.me.txt -
46 bytes

     northernwarriors.net.txt -
135 bytes

     sceneunderground.org.txt -
77 bytes

     visiontracker.net.txt -
91 bytes



Description



http://img69.imageshack.us/img69/3159/somethinger.jpg

[code]
Something Borrowed CAM XViD - IMAGiNE

Ripper ...........: IMAGiNE IMDB Rating.......: 5.5/10
Video Codec.......: XVID Release Date......: 11/05/11
Audio Codec.......: MP3 Theatre Date......: 06/05/11
Audio Bitrate.....: 128 Runtime...........: 1h 47mn
Subtitles.........: NIL Language..........: ENGLISH
Resolution........: 720 x 384 IMDb URL..........: http://www.imdb.com/title/tt0491152/

DETAILS:

Video
ID : 0
Format : MPEG-4 Visual
Format profile : Advanced [email protected]
Format settings, BVOP : Yes
Format settings, QPel : No
Format settings, GMC : No warppoints
Format settings, Matrix : Default (MPEG)
Muxing mode : Packed bitstream
Codec ID : XVID
Codec ID/Hint : XviD
Duration : 1h 47mn
Bit rate : 1 685 Kbps
Width : 720 pixels
Height : 384 pixels
Display aspect ratio : 1.875
Frame rate : 25.000 fps
Color space : YUV
Chroma subsampling : 4:2:0
Bit depth : 8 bits
Scan type : Progressive
Bits/(Pixel*Frame) : 0.244
Stream size : 1.27 GiB (92%)
Writing library : XviD 61

Audio
ID : 1
Format : MPEG Audio
Format version : Version 1
Format profile : Layer 3
Codec ID : 55
Codec ID/Hint : MP3
Duration : 1h 47mn
Bit rate mode : Constant
Bit rate : 128 Kbps
Channel(s) : 1 channel
Sampling rate : 44.1 KHz
Video delay : 20ms
Stream size : 98.7 MiB (7%)
Alignment : Split accross interleaves
Interleave, duration : 40 ms (1.00 video frame)
Interleave, preload duration : 500 ms
Writing library : LAME3.98km��lŽL�ój

Plot:
Friendships are tested and secrets come to the surface when terminally single Rachel falls for Dex, her best friend Darcy's fiancé.

SOURCES:
VIDEO: russians.... Thanks matey
AUDIO: Lu .... Thanks matey

NOTES:
IMAGiNE bringing you another release.......... Something Borrowed

This time we have to thanks Lu for sycing the audio big thanks again great work......
Now the video was just ok but was interlaced and has an scolling flicker to it.......
So we cropped,rotated and resized also adjusted the brightness,rgb, and all of that The audio we muxed to our encode......

Enjoy folks!
[/code]
Screens:
http://img713.imageshack.us/img713/8423/33601662.jpg

http://img846.imageshack.us/img846/8388/96032796.jpg

http://img24.imageshack.us/img24/2695/58436156.jpg

http://img718.imageshack.us/img718/8992/64227478.jpg

http://img864.imageshack.us/img864/75/92527050.jpg

http://img546.imageshack.us/img546/4276/56486064.jpg


Related torrents

Torrent NameAddedSizeSeedLeechHealth
1 Year+ - in Movies1.39 GB00
1 Year+ - in Movies1.38 GB01
1 Year+ - in Movies1.38 GB05
1 Year+ - in Movies1.38 GB2,269503
1 Year+ - in Movies1.37 GB01

Comments (0 Comments)




Please login or create a FREE account to post comments

Latest Searches

| that metal show 4 | Apowersoft Video Download Capture v6 0 9 | Fame girls extra vid | aftermath xvid fum ettv | blow up 2016 | Corel VideoStudio Ultimate X9 os | a teacher s 2015 | nicole aniston romi | Suze jewel | dark knight rises apk 1 1 2 |