Quick Browse
Movies
TV shows
Music
Games
Applications
Anime
Other
Facebook
Advertising

Friends
Torrent Download
Movie4u
1337x.to
Torrent Downloads




Sono.Il.Numero.Quattro.2011.iTALiAN.MD.AC3.720p.BDRip.XviD-[TrTd_CREW]


    Seeders : 0      Leechers : 0

Trackers List

Tracker NameLast CheckStatusSeedersLeechers




Torrent File Content (3 files)


Sono.Il.Numero.Quattro.2011.iTALiAN.MD.AC3.720p.BDRip.XviD-[TrTd_CREW]
     Sono.Il.Numero.Quattro.2011.iTALiAN.MD.AC3.720p.BDRip.XviD-[TrTd_CREW].avi -
1.2 GB

     presentazione.rtf -
30.64 KB

     presentazione.txt -
266 bytes



Description



http://www.torrented.org/public/phpbb3/images/presenta.png


http://img545.imageshack.us/img545/9467/newprojectak.png


http://img33.imageshack.us/img33/743/sonoilnumeroquattro.png




http://www.torrented.org/public/phpbb3/images/info%20film.png


[color=red]USCITA CINEMA:[/color] 18/02/2011
[color=red]REGIA:[/color] D.J. Caruso
[color=red]SCENEGGIATURA:[/color] Alfred Gough, Miles Millar
[color=red]ATTORI:[/color] Alex Pettyfer, Timothy Olyphant, Teresa Palmer, Dianna Agron, Callan McAuliffe, Kevin Durand, Jake Abel, Patrick Sebes, Greg Townley, Jeff Hochendoner, Emily Wickersham, Brian Howe


[color=red]FOTOGRAFIA:[/color] Guillermo Navarro
[color=red]MONTAGGIO:[/color] Jim Page
[color=red]MUSICHE:[/color] Trevor Rabin
[color=red]PRODUZIONE:[/color] Road Rebel
[color=red]DISTRIBUZIONE:[/color] Walt Disney Studios Motion Pictures
[color=red]PAESE:[/color] USA 2011
[color=red]GENERE:[/color] Azione, Fantascienza
[color=red]DURATA:[/color] 110 Min
[color=red]FORMATO:[/color] Colore

[spoiler]General
Count : 259
Count of stream of this kind : 1
Kind of stream : General
Kind of stream : General
Stream identifier : 0
Count of video streams : 1
Count of audio streams : 1
Video_Format_List : MPEG-4 Visual
Video_Format_WithHint_List : MPEG-4 Visual (XviD)
Codecs Video : XviD
Audio_Format_List : AC-3
Audio_Format_WithHint_List : AC-3
Audio codecs : AC3
Complete name : Sono.Il.Numero.Quattro.2011.iTALiAN.MD.AC3.720p.BDRip.XviD-[TrTd_CREW] Sono.Il.Numero.Quattro.2011.iTALiAN.MD.AC3.720p.BDRip.XviD-[TrTd_CREW].avi
Folder name : Sono.Il.Numero.Quattro.2011.iTALiAN.MD.AC3.720p.BDRip.XviD-[TrTd_CREW]
File name : Sono.Il.Numero.Quattro.2011.iTALiAN.MD.AC3.720p.BDRip.XviD-[TrTd_CREW]
File extension : avi
Format : AVI
Format : AVI
Format/Info : Audio Video Interleave
Format/Extensions usually used : avi
Interleaved : Yes
Codec : AVI
Codec : AVI
Codec/Info : Audio Video Interleave
Codec/Extensions usually used : avi
File size : 1284318878
File size : 1.20 GiB
File size : 1 GiB
File size : 1.2 GiB
File size : 1.20 GiB
File size : 1.196 GiB
Duration : 6575072
Duration : 1h 49mn
Duration : 1h 49mn 35s 72ms
Duration : 1h 49mn
Duration : 01:49:35.072
Overall bit rate : 1562652
Overall bit rate : 1 563 Kbps
Stream size : 7628478
Stream size : 7.28 MiB (1%)
Stream size : 7 MiB
Stream size : 7.3 MiB
Stream size : 7.28 MiB
Stream size : 7.275 MiB
Stream size : 7.28 MiB (1%)
Proportion of this stream : 0.00594
File creation date : UTC 2011-05-07 20:48:01.874
File creation date (local) : 2011-05-07 22:48:01.874
File last modification date : UTC 2011-05-07 22:51:29.384
File last modification date (loc : 2011-05-08 00:51:29.384
Writing library : VirtualDub build 32817/release
Writing library : VirtualDub build 32817/release

Video
Count : 148
Count of stream of this kind : 1
Kind of stream : Video
Kind of stream : Video
Stream identifier : 0
ID : 0
ID : 0
Format : MPEG-4 Visual
Format profile : [email protected]
Format settings : BVOP
Format settings, BVOP : Yes
Format settings, BVOP : Yes
Format settings, QPel : No
Format settings, QPel : No
Format settings, GMC : 0
Format settings, GMC : No warppoints
Format settings, Matrix : Default (H.263)
Format settings, Matrix : Default (H.263)
Muxing mode : Packed bitstream
Codec ID : XVID
Codec ID/Hint : XviD
Codec ID/Url : http://mediaarea.net/XVID
Codec : XVID
Codec : XviD
Codec/Family : MPEG-4V
Codec/Info : XviD project
Codec/Url : http://www.xvid.org/Downloads.15.0.html
Codec/CC : XVID
Codec profile : [email protected]
Codec settings : BVOP / Packed Bitstream
Codec settings, Packet bitstream : Yes
Codec settings, BVOP : Yes
Codec settings, QPel : No
Codec settings, GMC : 0
Codec settings, GMC : No warppoints
Codec settings, Matrix : Default (H.263)
Duration : 6574824
Duration : 1h 49mn
Duration : 1h 49mn 34s 824ms
Duration : 1h 49mn
Duration : 01:49:34.824
Bit rate : 1361422
Bit rate : 1 361 Kbps
Width : 1280
Width : 1 280 pixels
Height : 688
Height : 688 pixels
Pixel aspect ratio : 1.000
Display aspect ratio : 1.860
Display aspect ratio : 1.860
Frame rate : 23.976
Frame rate : 23.976 fps
Frame count : 157638
Resolution : 24
Resolution : 24 bits
Colorimetry : 4:2:0
Scan type : Progressive
Scan type : Progressive
Interlacement : PPF
Interlacement : Progressive
Bits/(Pixel*Frame) : 0.064
Delay : 0
Stream size : 1118888672
Stream size : 1.04 GiB (87%)
Stream size : 1 GiB
Stream size : 1.0 GiB
Stream size : 1.04 GiB
Stream size : 1.042 GiB
Stream size : 1.04 GiB (87%)
Proportion of this stream : 0.87119
Writing library : XviD0050
Writing library : XviD 1.2.1 (UTC 2008-12-04)
Writing library/Name : XviD
Writing library/Version : 1.2.1
Writing library/Date : UTC 2008-12-04

Audio
Count : 129
Count of stream of this kind : 1
Kind of stream : Audio
Kind of stream : Audio
Stream identifier : 0
ID : 1
ID : 1
Format : AC-3
Format/Info : Audio Coding 3
Codec ID : 2000
Codec : AC3
Codec : AC3
Codec/Family : AC3
Codec/Info : Dolby AC3
Codec/CC : 2000
Duration : 6575072
Duration : 1h 49mn
Duration : 1h 49mn 35s 72ms
Duration : 1h 49mn
Duration : 01:49:35.072
Bit rate mode : CBR
Bit rate mode : Constant
Bit rate : 192000
Bit rate : 192 Kbps
Channel(s) : 2
Channel(s) : 2 channels
Channel positions : L R
Channel positions : 2/0
Sampling rate : 48000
Sampling rate : 48.0 KHz
SamplingCount : 315603456
Delay : 0
Video delay : 0
Video0 delay : 0
Stream size : 157801728
Stream size : 150 MiB (12%)
Stream size : 150 MiB
Stream size : 150 MiB
Stream size : 150 MiB
Stream size : 150.5 MiB
Stream size : 150 MiB (12%)
Proportion of this stream : 0.12287
Alignment : Aligned
Alignment : Aligned on interleaves
Interleave, duration : 1.00
Interleave, duration : 42
Interleave, duration : 42 ms (1.00 video frame)
Interleave, preload duration : 512
Interleave, preload duration : 512 ms[/spoiler]



http://www.torrented.org/public/phpbb3/images/trama.png


Tre sono morti. Chi è il Numero Quattro? D.J. Caruso dirige un thriller ricco di azione sulla storia di un ragazzo straordinario, John Smith (Alex Pettyfer), in fuga da spietati nemici inviati per annientarlo. Cambia identità, si sposta di città in città con il suo guardiamo Henri (Timothy Olyphant), John è sempre un nuovo ragazzo senza alcun legame con il passato. Nella piccola cittadina dell’Ohio che ora chiama casa, John va incontro a inaspettati eventi che cambiano la sua vita: il primo amore (Dianna Agron), nuovi poteri e un legame con altri con cui condivide uno stesso incredibile destino.



http://www.torrented.org/public/phpbb3/images/Screenshot.png


http://img263.imageshack.us/img263/337/sonoilnumeroquatro.jpg


[color=red][size=4]Audio: 7 Video: 10[/size][/color]

[color=yellow]Encoder: [size=4]TrTd_CREW[/size]
[/color]



[color=red][size=4]Per la release completa visita[/size][/color][url=http://www.torrented.org][size=5]Torrented.org[/size][/url]

Related torrents

Torrent NameAddedSizeSeedLeechHealth
Verified torrent
1 Year+ - in Movies1.58 GB2960
Verified torrent
1 Year+ - in Movies575.37 MB134
1 Year+ - in Movies1.85 GB21
Verified torrent
8 months ago - in Movies8.66 GB47194
1 Year+ - in Movies1.68 GB32

Comments (0 Comments)




Please login or create a FREE account to post comments

Latest Searches

| windows 8 1 aio 6in1 x86 x64 incl december 2016 preactivated | Angelo r | lil Wayne ft yg | bmtbguy domina s valley 5 GTS NEW Adult 3D Comics Almerias | Dena by | naruto shippuden full season | shanay | p m dawn best of | The Affair S02E11 HDTV XviD FUMettv | macklemore ryan thrift |