Quick Browse
Movies
TV shows
Music
Games
Applications
Anime
Other
Facebook
Advertising

Friends
Torrent Download
Movie4u
1337x.to
Torrent Downloads




Verified torrent Soul Surfer 2011 CAM XVID StoNerS


    Seeders : 0      Leechers : 0
Hash :BD49252076BB8FD1E97B2A56825A47D8D3B7DA47
Added :1 Year+ by memory100Verified torrent uploader in Movies
Size :1.09 GB
Stream :WATCH ONLINE @ Movie4u


Soul Surfer 2011 CAM XVID StoNerS
Free and Fast Download with Usenet 300GB+ free







Trackers List

Tracker NameLast CheckStatusSeedersLeechers




Torrent File Content (9 files)


Soul Surfer 2011 CAM XVID StoNerS
     Budget seedboxs.txt -
44 bytes

     NW RG.nfo -
12.96 KB

     Soul Surfer 2011 CAM XVID StoNerS.avi -
1.09 GB

     Soul Surfer 2011 CAM XVID StoNerS.avi.txt -
12 KB

     Soul Surfer 2011 CAM XVID StoNerS_idx.jpg -
165.61 KB

     Torrent downloaded from Demonoid.me.txt -
46 bytes

     northernwarriors.net.txt -
135 bytes

     sceneunderground.org.txt -
77 bytes

     visiontracker.net.txt -
91 bytes



Description



http://img9.imageshack.us/img9/3148/posterbk.jpg


[code]
Soul Surfer 2011 CAM XVID StoNerS

Format : AVI
Format/Info : Audio Video Interleave
File size : 1.09 GiB
Duration : 1h 42mn
Overall bit rate : 1 527 Kbps
Movie name : Soul Surfer 2011 CAM XVID StoNerS
Encoder : Nichy
Writing library : TMPGEnc 4.0 XPress Version. 4.7.4.299
Comment : StoNerS FTW!!

Video
ID : 0
Format : MPEG-4 Visual
Format profile : Advanced [email protected]
Format settings, BVOP : 2
Format settings, QPel : No
Format settings, GMC : No warppoints
Format settings, Matrix : Default (H.263)
Muxing mode : Packed bitstream
Codec ID : XVID
Codec ID/Hint : XviD
Duration : 1h 42mn
Bit rate : 1 387 Kbps
Width : 720 pixels
Height : 320 pixels
Display aspect ratio : 2.25:1
Frame rate : 23.976 fps
Color space : YUV
Chroma subsampling : 4:2:0
Bit depth : 8 bits
Scan type : Progressive
Compression mode : Lossy
Bits/(Pixel*Frame) : 0.251
Stream size : 1 017 MiB (91%)
Writing library : XviD 63

Audio
ID : 1
Format : MPEG Audio
Format version : Version 1
Format profile : Layer 3
Mode : Joint stereo
Codec ID : 55
Codec ID/Hint : MP3
Duration : 1h 42mn
Bit rate mode : Constant
Bit rate : 128 Kbps
Channel(s) : 2 channels
Sampling rate : 48.0 KHz
Compression mode : Lossy
Stream size : 93.8 MiB (8%)
Alignment : Aligned on interleaves
Interleave, duration : 42 ms (1.00 video frame)
Interleave, preload duration : 408 ms

plot:
A teenage surfer girl summons the courage to go back into the ocean after losing an arm in a shark attack.

Director:
Sean McNamara

Writers:
Sean McNamara (screenplay), Deborah Schwartz (screenplay), and 12 more credits »

Stars:
AnnaSophia Robb, Dennis Quaid and Helen Hunt
[/code]
Screens:
http://img860.imageshack.us/img860/263/12875318.jpg

Related torrents

Torrent NameAddedSizeSeedLeechHealth
1 Year+ - in Movies1.31 GB114
1 Year+ - in Movies702.41 MB12
1 Comments
2 Good
1 Year+ - in Movies1.33 GB00
1 Year+ - in Movies1.2 GB152
1 Year+ - in Movies1.08 GB00

Comments (0 Comments)




Please login or create a FREE account to post comments

Latest Searches

| I the mighty no | Luxure experience | love is a bitch | the s08e15 big bang theory | mea leone | aint if fun | HOME VIVID | birth of the 4 | que sea lo que sera | ne yo jeezy money cant buy |