Quick Browse
Movies
TV shows
Music
Games
Applications
Anime
Other
Facebook
Advertising

Friends
Torrent Download
Movie4u
1337x.to
Torrent Downloads




Source.Code.2011.iTALiAN.720p.LD.BDRip.XviD-TrTd_CREW


    Seeders : 1      Leechers : 11
Hash :F46FBCFE70D6CE1B1D4FB4CC245729C257A31CB7
Added :1 Year+ by ignazio19Verified torrent uploader in
Size :1.2 GB
Stream :WATCH ONLINE @ Movie4u


Source.Code.2011.iTALiAN.720p.LD.BDRip.XviD-TrTd_CREW
Free and Fast Download with Usenet 300GB+ free







Trackers List

Tracker NameLast CheckStatusSeedersLeechers




Torrent File Content (3 files)


Source.Code.2011.iTALiAN.720p.LD.BDRip.XviD-TrTd_CREW
     Source.Code.2011.iTALiAN.720p.LD.BDRip.XviD-TrTd_CREW.avi -
1.2 GB

     presentazione.rtf -
30.64 KB

     presentazione.txt -
266 bytes



Description



Tracia Audio [LD-TNZ] Su  Nostro Encoder [Inglese] 
No SUB Coreano


http://www.torrented.org/public/phpbb3/images/presenta.png


http://img98.imageshack.us/img98/2345/newprojectsr.png


http://img827.imageshack.us/img827/189/sourcecode.png




http://www.torrented.org/public/phpbb3/images/info%20film.png


[color=red]USCITA CINEMA:[/color] 29/04/2011
[color=red]REGIA:[/color] Duncan Jones
[color=red]SCENEGGIATURA:[/color] Billy Ray, Ben Ripley
[color=red]ATTORI:[/color] Jake Gyllenhaal, Vera Farmiga, Michelle Monaghan, Jeffrey Wright, Russell Peters, James A. Woods, Michael Arden, Cas Anvar, Joe Cobden, Neil Napier, Gordon Masten, Craig Thomas, Susan Bain, Kyle Allatt


[color=red]FOTOGRAFIA:[/color] Don Burgess
[color=red]MONTAGGIO:[/color] Paul Hirsch
[color=red]MUSICHE:[/color] Clint Mansell
[color=red]PRODUZIONE:[/color] The Mark Gordon Company, Vendome Pictures
[color=red]DISTRIBUZIONE:[/color] 01 Distribution
[color=red]PAESE:[/color] USA 2011
[color=red]GENERE:[/color] Fantascienza, Thriller
[color=red]DURATA:[/color] 93 Min
[color=red]FORMATO:[/color] Colore


[spoiler]General
Count : 259
Count of stream of this kind : 1
Kind of stream : General
Kind of stream : General
Stream identifier : 0
Count of video streams : 1
Count of audio streams : 1
Video_Format_List : MPEG-4 Visual
Video_Format_WithHint_List : MPEG-4 Visual (XviD)
Codecs Video : XviD
Audio_Format_List : MPEG Audio
Audio_Format_WithHint_List : MPEG Audio (MP3)
Audio codecs : MPEG-1 Audio layer 3
Complete name : Source.Code.2011.iTALiAN.720p.LD.BDRip.XviD-TrTd_CREW\Source.Code.2011.iTALiAN.720p.LD.BDRip.XviD-TrTd_CREW.avi
Folder name : Source.Code.2011.iTALiAN.720p.LD.BDRip.XviD-TrTd_CREW
File name : Source.Code.2011.iTALiAN.720p.LD.BDRip.XviD-TrTd_CREW
File extension : avi
Format : AVI
Format : AVI
Format/Info : Audio Video Interleave
Format/Extensions usually used : avi
Interleaved : Yes
Codec : AVI
Codec : AVI
Codec/Info : Audio Video Interleave
Codec/Extensions usually used : avi
File size : 1289953280
File size : 1.20 GiB
File size : 1 GiB
File size : 1.2 GiB
File size : 1.20 GiB
File size : 1.201 GiB
Duration : 5573006
Duration : 1h 32mn
Duration : 1h 32mn 53s 6ms
Duration : 1h 32mn
Duration : 01:32:53.006
Overall bit rate : 1851716
Overall bit rate : 1 852 Kbps
Stream size : 8251040
Stream size : 7.87 MiB (1%)
Stream size : 8 MiB
Stream size : 7.9 MiB
Stream size : 7.87 MiB
Stream size : 7.869 MiB
Stream size : 7.87 MiB (1%)
Proportion of this stream : 0.00640
Title : Source.code.2011.iTALiAN.720p.LD.BDRip.XviD-TrTd_CREW
Movie name : Source.code.2011.iTALiAN.720p.LD.BDRip.XviD-TrTd_CREW
File creation date : UTC 2011-06-13 16:27:09.610
File creation date (local) : 2011-06-13 18:27:09.610
File last modification date : UTC 2011-06-13 18:52:52.635
File last modification date (loc : 2011-06-13 20:52:52.635
Writing application : VirtualDubMod 1.5.10.2 (build 2542/release)
Writing library : VirtualDubMod build 2542/release
Writing library : VirtualDubMod build 2542/release
Comment : Traccia Audio LD TNZ su Nostro Encoder Inglese

Video
Count : 148
Count of stream of this kind : 1
Kind of stream : Video
Kind of stream : Video
Stream identifier : 0
ID : 0
ID : 0
Format : MPEG-4 Visual
Format profile : [email protected]
Format settings : BVOP
Format settings, BVOP : Yes
Format settings, BVOP : Yes
Format settings, QPel : No
Format settings, QPel : No
Format settings, GMC : 0
Format settings, GMC : No warppoints
Format settings, Matrix : Default (H.263)
Format settings, Matrix : Default (H.263)
Muxing mode : Packed bitstream
Codec ID : XVID
Codec ID/Hint : XviD
Codec ID/Url : http://mediaarea.net/XVID
Codec : XVID
Codec : XviD
Codec/Family : MPEG-4V
Codec/Info : XviD project
Codec/Url : http://www.xvid.org/Downloads.15.0.html
Codec/CC : XVID
Codec profile : [email protected]
Codec settings : BVOP / Packed Bitstream
Codec settings, Packet bitstream : Yes
Codec settings, BVOP : Yes
Codec settings, QPel : No
Codec settings, GMC : 0
Codec settings, GMC : No warppoints
Codec settings, Matrix : Default (H.263)
Duration : 5573006
Duration : 1h 32mn
Duration : 1h 32mn 53s 6ms
Duration : 1h 32mn
Duration : 01:32:53.006
Bit rate : 1519873
Bit rate : 1 520 Kbps
Width : 1280
Width : 1 280 pixels
Height : 720
Height : 720 pixels
Pixel aspect ratio : 1.000
Display aspect ratio : 1.778
Display aspect ratio : 16:9
Frame rate : 29.970
Frame rate : 29.970 fps
Frame count : 167023
Resolution : 24
Resolution : 24 bits
Colorimetry : 4:2:0
Scan type : Progressive
Scan type : Progressive
Interlacement : PPF
Interlacement : Progressive
Bits/(Pixel*Frame) : 0.055
Delay : 0
Stream size : 1058782586
Stream size : 1 010 MiB (82%)
Stream size : 1 010 MiB
Stream size : 1 010 MiB
Stream size : 1 010 MiB
Stream size : 1 009.7 MiB
Stream size : 1 010 MiB (82%)
Proportion of this stream : 0.82079
Title : Source.code.2011.iTALiAN.720p.LD.BDRip.XviD-TrTd_CREW
Writing library : XviD0050
Writing library : XviD 1.2.1 (UTC 2008-12-04)
Writing library/Name : XviD
Writing library/Version : 1.2.1
Writing library/Date : UTC 2008-12-04

Audio
Count : 129
Count of stream of this kind : 1
Kind of stream : Audio
Kind of stream : Audio
Stream identifier : 0
ID : 1
ID : 1
Format : MPEG Audio
Format version : Version 1
Format profile : Layer 3
Format settings : Joint stereo / MS Stereo
Format_Settings_Mode : Joint stereo / MS Stereo
Codec ID : 55
Codec ID/Hint : MP3
Codec ID/Url : http://www.iis.fraunhofer.de/amm/index.html
Codec : MPA1L3
Codec : MPEG-1 Audio layer 3
Codec/Family : MPEG-1
Codec/Info : MPEG-1 or 2 layer 3
Codec/Url : http://www.iis.fraunhofer.de/amm/index.html
Codec/CC : 55
Codec profile : Joint stereo
Duration : 5572992
Duration : 1h 32mn
Duration : 1h 32mn 52s 992ms
Duration : 1h 32mn
Duration : 01:32:52.992
Bit rate mode : CBR
Bit rate mode : Constant
Bit rate : 320000
Bit rate : 320 Kbps
Channel(s) : 2
Channel(s) : 2 channels
Sampling rate : 48000
Sampling rate : 48.0 KHz
SamplingCount : 267503616
Resolution : 16
Resolution : 16 bits
Delay : 0
Video delay : 0
Video0 delay : 0
Stream size : 222919654
Stream size : 213 MiB (17%)
Stream size : 213 MiB
Stream size : 213 MiB
Stream size : 213 MiB
Stream size : 212.6 MiB
Stream size : 213 MiB (17%)
Proportion of this stream : 0.17281
Alignment : Split
Alignment : Split accross interleaves
Interleave, duration : 1.00
Interleave, duration : 33
Interleave, duration : 33 ms (1.00 video frame)
Interleave, preload duration : 500
Interleave, preload duration : 500 ms
Writing library : LAME3.98.2
Writing library : LAME3.98.2



[/spoiler]

http://www.torrented.org/public/phpbb3/images/trama.png


rama del film Source Code:
Colter (Jake Gyllenhaal) è un soldato che fa parte di un programma governativo sperimentale per le investigazioni su un attacco terroristico. Si trova quindi costretto a vivere e rivivere, attraverso la tecnologia, la tragedia di un treno fatto esplodere da una bomba fino a che non riesce ad individuare gli attentatori. Ad aiutarlo nel suo viaggio attraverso il tempo e lo spazio ci sarà un ufficiale di collegamento (Vera Farmiga), mentre sul treno verrà supportato e s'innamorerà di una ragazza (Michelle Monaghan).



http://www.torrented.org/public/phpbb3/images/Screenshot.png


http://img189.imageshack.us/img189/8912/sourcecodescree.jpg



http://www.uptiki.com/images/b7717k9ytuyw8ehr8g.png

Related torrents

Torrent NameAddedSizeSeedLeechHealth
1 Year+ - in Movies698.21 MB00
1 Year+ - in Movies698.56 MB00
Verified torrent
1 Year+ - in Movies707.02 MB10
1 Year+ - in Movies1.37 GB00
1 Year+ - in Movies1.37 GB00

Comments (0 Comments)




Please login or create a FREE account to post comments

Latest Searches

| futurama 4 spa | The Ninja Turtles 2013 | list on | sabbatic goat | search for meaning audiobook | animerg tales of zestiria the x 10 720p releasebitch | raising hope season 1 complete | t i and nipsey | wagner FLAC | harry potter prigioniero |