Quick Browse
Movies
TV shows
Music
Games
Applications
Anime
Other
Facebook
Advertising

Friends
Torrent Download
Movie4u
1337x.to
Torrent Downloads




Verified torrent Splice[2010]R5.LiNE-LW


    Seeders : 24      Leechers : 3
Hash :877558A37FCEB2F3ACD5623C519C75C92B28EF0B
Added :1 Year+ by XoLWoXVerified torrent uploader in Movies
Size :721.97 MB
Stream :WATCH ONLINE @ Movie4u


Splice[2010]R5.LiNE-LW
Free and Fast Download with Usenet 300GB+ free







Trackers List

Tracker NameLast CheckStatusSeedersLeechers




Torrent File Content (8 files)


Splice[2010]R5.LiNE-LW
    Cover
          S-Cover.jpg -
49.67 KB

    Info
          Movie Info.nfo -
14.64 KB

          Movie Info.txt -
3.1 KB

    Movie
          Splice[2010]R5.LiNE-LW.avi -
721.9 MB

    Trackers
          tracked_by_l33t.cz.cc.txt -
3.27 KB

          Torrent downloaded from AhaShare.com.txt -
59 bytes

          Torrent downloaded from Demonoid.com.txt -
47 bytes

          tracked_by_h33t_com.txt -
23 bytes



Description



http://i38.tinypic.com/28u5nib.jpg

[color=red]-------------------------------------------------[/color]
http://i48.tinypic.com/k13v48.jpg

[color=red]-------------------------------------------------[/color]
File Name : Splice[2010]R5.LiNE-LW
Type : Movie
Format : AVI
File Size : 721 MB
Duration : 01:44:08
Language : English
Source : R5.LiNE
Subtitles : None
Genre : Sci-Fi
IMDB Link : http://www.imdb.com/title/tt1017460/
[color=red]-------------------------------------------------[/color]
http://i46.tinypic.com/5n13z8.jpg

[color=red]-------------------------------------------------[/color]
Format : MPEG-4 Visual
Format settings, BVOP : Yes
Format settings, QPel : No
Format settings, GMC : No warppoints
Format settings, Matrix : Default (H.263)
Muxing mode : Packed bitstream
Codec ID : DX50
Codec ID/Hint : DivX 5
Duration : 1h 44mn
Bit rate : 771 Kbps
Width : 704 pixels
Height : 368 pixels
Display aspect ratio : 1.913
Frame rate : 23.976 fps
Resolution : 8 bits
Colorimetry : 4:2:0
Scan type : Progressive
Bits/(Pixel*Frame) : 0.124
Stream size : 574 MiB (80%)
Writing library : DivX 6.8.5
[color=red]-------------------------------------------------[/color]
http://i45.tinypic.com/14lof2g.jpg

[color=red]-------------------------------------------------[/color]
Format : MPEG Audio
Format version : Version 1
Format profile : Layer 3
Mode : Joint stereo / MS Stereo
Codec ID : 55
Codec ID/Hint : MP3
Duration : 1h 42mn
Bit rate mode : Constant
Bit rate : 192 Kbps
Channel(s) : 2 channels
Sampling rate : 48.0 KHz
Video delay : 16ms
Stream size : 141 MiB (19%)
Alignment : Split accross interleaves
Interleave, duration : 42 ms (1.02 video frame)
Interleave, preload duration : 500 ms
[color=red]-------------------------------------------------[/color]
http://i46.tinypic.com/16ih2fo.jpg

[color=red]-------------------------------------------------[/color]
Ignoring instructions from the pharmaceutical company
that funds their research, groundbreaking genetic
scientists Elsa (Sarah Polley) and Clive (Adrien Brody)
continue with an unorthodox experiment to create a
human-animal hybrid, a new life form they dub "Dren"
(Delphine Chanéac). When they see their fantastical
creation, Clive warns that it should be destroyed, but
Elsa refuses -- a decision she'll regret when Dren makes
deadly plans of her own.

Starring: Adrien Brody, Sarah Polley

Director: Vincenzo Natali
[color=red]-------------------------------------------------[/color]

http://i49.tinypic.com/2vi137p.jpg

http://i35.tinypic.com/148kcx4.jpg

http://i35.tinypic.com/jsc40j.jpg

http://i37.tinypic.com/2rr0uus.jpg

http://i38.tinypic.com/k1vwcy.jpg

http://i37.tinypic.com/2m66gsx.jpg

Related torrents

Torrent NameAddedSizeSeedLeechHealth
1 Year+ - in Movies701.7 MB30
Verified torrent
1 Year+ - in Movies702 MB180
1 Year+ - in Movies1.37 GB4115
1 Year+ - in Movies710.68 MB12064
1 Year+ - in Movies4.4 GB65107

Comments (0 Comments)




Please login or create a FREE account to post comments

Latest Searches

| Lab Girl Jahren | Mechanic Resurrection | potje | Roy Ch y Brown Great British Jerk Off Live 2016 DVDRip x264 HAGGiS | kong skull island 2 | to die for 1995 1080p bluray x265 hevc 10bit aac 2 0 tigole | Left Hand String Band | Windows 8 1 Pro VL X64 X86 Pre Activated | ekaterina 2015 | Tyler to |