Quick Browse
Movies
TV shows
Music
Games
Applications
Anime
Other
Facebook
Advertising

Friends
Torrent Download
Movie4u
1337x.to
Torrent Downloads




Verified torrent Splice [DVD] [ENG] [AC3] [Hannspree]


    Seeders : 2      Leechers : 25
Hash :DD4DCC10D0B95014230B6CA321F0B3618630FCD2
Added :1 Year+ by HannspreeVerified torrent uploader in Movies
Size :1.52 GB
Stream :WATCH ONLINE @ Movie4u


Splice [DVD] [ENG] [AC3] [Hannspree]
Free and Fast Download with Usenet 300GB+ free







Trackers List

Tracker NameLast CheckStatusSeedersLeechers




Torrent File Content (19 files)


Splice
    Splice [DVD]
          VIDEO_TS/VIDEO_TS.BUP -
12 KB

          VIDEO_TS/VIDEO_TS.IFO -
12 KB

          VIDEO_TS/VIDEO_TS.VOB -
58 KB

          VIDEO_TS/VTS_01_0.BUP -
74 KB

          VIDEO_TS/VTS_01_0.IFO -
74 KB

          VIDEO_TS/VTS_01_0.VOB -
58 KB

          VIDEO_TS/VTS_01_1.VOB -
1023.97 MB

          VIDEO_TS/VTS_01_2.VOB -
529.99 MB

    Splice [Images]
          Splice [Cover].jpg -
540.95 KB

          Splice [Disc].jpg -
22.35 KB

          Splice [Screen Shots].jpg -
133.92 KB

     Splice.NFO -
4.03 KB

     Torrent downloaded from Ahashare.com.txt -
47 bytes

     Torrent downloaded from Demonoid.com.txt -
47 bytes

     Torrent downloaded from Genesis-sp.org.txt -
49 bytes

     Torrent downloaded from H33t.org.txt -
43 bytes

     Torrent downloaded from Limetorrents.com.txt -
51 bytes

     Torrent downloaded from TorrentBucket.org.txt -
52 bytes

     Torrent downloaded from Torrentsnet.com.txt -
48 bytes



Description



[color=black]=====================================================================================
[ Another free, high quality, ready to burn DVD I will be adding new torrents on a daily basis - Remember to seed ]
=====================================================================================
MOVIE TITLE: Splice
LANGUAGE: English
MOVIE SUBS: No
BURN TESTED: Yes
FORMAT: Pal
GENRE: Sci-Fi | Thriller
RUNTIME: 106 Minutes
YEAR: 2009
IMDB LINK: http://www.imdb.com/title/tt1017460/
=====================================================================================
MOVIE DESC:

Elsa and Clive, two young rebellious scientists, defy legal and ethical boundaries and forge ahead with a dangerous experiment splicing together human and animal DNA to create a new organism. Named "Dren", the creature rapidly develops from a deformed female infant into a beautiful but dangerous winged human-chimera, who forges a bond with both of her creators only to have that bond turn deadly.
=====================================================================================
MOVIE SPECS:

GENERAL:
Complete name : Splice [DVD]
Format : MPEG-PS
File size : 1.51 GB
Duration : 106 Minutes
Overall bit rate : 2 017 Kbps

VIDEO:
ID : 224 (0xE0)
Format : MPEG Video
Format version : Version 2
Format profile : [email protected]
Format settings, BVOP : Yes
Format settings, Matrix : Default
Duration : 106 Minutes
Bit rate mode : Variable
Bit rate : 1 784 Kbps
Nominal bit rate : 9 608 Kbps
Width : 720 pixels
Height : 576 pixels
Display aspect ratio : 16:9
Frame rate : 24.000 fps
Standard : PAL
Color space : YUV
Chroma subsampling : 4:2:0
Bit depth : 8 bits
Scan type : Progressive
Scan order : 2:2:2:2:2:2:2:2:2:2:2:3 Pulldown
Bits/(Pixel*Frame) : 0.179
Stream size : 906 MiB (88%)

AUDIO:
ID : 128 (0x80)
Format : AC-3
Format/Info : Audio Coding 3
Mode extension : CM (complete main)
Duration : 106 Minutes
Bit rate mode : Constant
Bit rate : 192 Kbps
Channel(s) : 2 channels
Channel positions : Front: L R
Sampling rate : 48.0 KHz
Stream size : 97.5 MiB (10%)
=====================================================================================
TRACKERS:
http://inferno.demonoid.com:3401/announce
http://www.genesis-sp.org:2710/announce
http://tracker.torrentbox.com:2710/announce
http://denis.stalker.h3q.com:6969/announce
http://nemesis.1337x.org/announce
http://exodus.1337x.org/announce
http://tracker.publicbt.com/announce
http://10.rarbg.com/announce
http://tracker.ilibr.org:6969/announce
http://rt.beeretracker.net/announce.php
http://torrentbucket.org/announce
=====================================================================================
[FOOT NOTE]
If you are happy with this download, it would be nice to hear your views or comments that you might have. Enjoy
[NEW TORRENT SITE OPENED]
Check out http://torrentbucket.org/ The staff and members are extremely friendly and a relaxed enviroment, plus
there tracker reports live stats' (up-to-the-minute) on your uploaded torrents, your ratio could go through the
roof in no time, well worth joining, check them out!!
=====================================================================================
Screen Shots Of - Splice[/color]

http://leetpic.com/images/splicescre.jpg


Related torrents

Torrent NameAddedSizeSeedLeechHealth
Verified torrent
1 Year+ - in Movies1.36 GB129
Verified torrent
1 Year+ - in Movies1.34 GB56
Verified torrent
1 Year+ - in Movies1.7 GB186
Verified torrent
1 Year+ - in Movies1.53 GB62
Verified torrent
1 Year+ - in Movies1.43 GB81

Comments (0 Comments)




Please login or create a FREE account to post comments

Latest Searches

| the big theory 1080p 1 | k a tracy | 2000AD Progs 0960 0969 | Ce Soir Le Sex | the big theory 1080p 01 | hits of the 90s flac | Alysa black cock in ass | the big theory 1080p season | G Eazy Lets get lost | t i i m flexin |