Quick Browse
Movies
TV shows
Music
Games
Applications
Anime
Other
Facebook
Advertising

Friends
Torrent Download
Movie4u
1337x.to
Torrent Downloads




Sport de Filles 2012 FRENCH TS XviD-MAXSPEED


    Seeders : 0      Leechers : 0
Hash :54D169E980CF7E006F0E798B36E31F12628D6EA7
Added :1 Year+ by L0LPLZVerified torrent uploader in Movies
Size :701.36 MB
Stream :WATCH ONLINE @ Movie4u


Sport de Filles 2012 FRENCH TS XviD-MAXSPEED
Free and Fast Download with Usenet 300GB+ free







Trackers List

Tracker NameLast CheckStatusSeedersLeechers




Torrent File Content (4 files)


Sport de Filles 2012 FRENCH TS XviD-MAXSPEED
     Sport de Filles 2012 FRENCH TS XviD-MAXSPEED.rar -
701.36 MB

     LISEZ MOI - Important.txt -
2.03 KB

     Torrent Downloaded From ExtraTorrent.com.txt -
374 bytes

     Tracked by Demonoid.com.txt -
30 bytes



Description



Sport de Filles 2012 FRENCH TS XviD-MAXSPEED

http://www.imdb.com/title/tt1931544/

Video
ID : 0
Format : MPEG-4 Visual
Format profile : [email protected]
Format settings, BVOP : Yes
Format settings, QPel : No
Format settings, GMC : No warppoints
Format settings, Matrix : Custom
Codec ID : XVID
Codec ID/Hint : XviD
Duration : 1h 41mn
Bit rate : 1 737 Kbps
Width : 720 pixels
Height : 400 pixels
Display aspect ratio : 16:9
Frame rate : 23.976 fps
Resolution : 24 bits
Colorimetry : 4:2:0
Scan type : Progressive
Bits/(Pixel*Frame) : 0.252
Stream size : 1.27 GiB (82%)
Writing library : XviD 58

Audio
ID : 1
Format : AC-3
Format/Info : Audio Coding 3
Codec ID : 2000
Duration : 1h 41mn
Bit rate mode : Constant
Bit rate : 384 Kbps
Channel(s) : 6 channels
Channel positions : Front: L C R, Surround: L R, LFE
Sampling rate : 48.0 KHz
Stream size : 287 MiB (18%)
Alignment : Aligned on interleaves
Interleave, duration : 64 ms (1.53 video frames)
Interleave, preload duration : 192 ms


Recommandé pour tous nos films
http://www.videolan.org/vlc/

N'OUBLIEZ PAS: Dieu exige AMOUR, DE GRAINES, les pairs et un ratio TORRENT JUSTE

Related torrents

Torrent NameAddedSizeSeedLeechHealth
Verified torrent
1 Year+ - in Movies701 MB00
1 Comments
1 Year+ - in Movies701.36 MB00
1 Year+ - in Movies702.36 MB20
1 Year+ - in Movies1.36 GB00
2 Comments
1 Bad
1 Year+ - in Movies712 MB21

Comments (0 Comments)




Please login or create a FREE account to post comments

Latest Searches

| mofos KRISTEN SCOTT | kenna frigid | the notorious back to cali | Cat Girl 2016 | gta 1 game download | Freeway Jacka | the vampire season 8 episode 06 | nero 10 windows 10 | windows 7 x64 updated 2016 | The Spartans 3 |