Quick Browse
Movies
TV shows
Music
Games
Applications
Anime
Other

Donate and Support

Friends
Torrents.me
Torrent Download
Free Movies
1337x
RARBG
Torrent Downloads

Verified torrent Stan Helsing[2009]DvDrip-LW


    Seeders : 47      Leechers : 12
Hash :A78B416F42B9D3284431D96E811C6E4BB5E4C684
Added :1 Year+ by XoLWoXVerified torrent uploader in Movies
Size :702.42 MB
Stream :Watch Full Movies Online @ Movie4u
Share :


Stan Helsing[2009]DvDrip-LW
Anonymous and free Direct Download







Warning! Do not Download Torrents Without a VPN!
Your IP Address is .   And Location is
Your Internet Provider and Government can track your torrent Activity!  Hide your IP ADDRESS with a VPN!
We Strongly Recommend Using SpyOFF Torrent VPN to Anonymize your Torrenting. It's FREE For 15 Days!

Note :

Please Update (Trackers Info) Before Downloading Torrents to See Updated Seeders And Leechers for Batter Download Speed.

Trackers List

Tracker NameLast CheckStatusSeedersLeechers




Torrent File Content (5 files)


Stan Helsing[2009]DvDrip-LW
    Cover
          SH-Cover.jpg -
86.13 KB

    Info
          Movie Info.nfo -
14.67 KB

          Movie Info.txt -
3.13 KB

    Movie
          Stan Helsing[2009]DvDrip-LW.avi -
702.32 MB

    Trackers
          tracked_by_h33t_com.txt -
23 bytes



Description



http://i31.tinypic.com/2hdzf9k.jpg

-------------------------------------------------
http://i48.tinypic.com/k13v48.jpg

-------------------------------------------------
File Name : Stan Helsing[2009]DvDrip-LW
Type : Movie
Format : AVI
File Size : 702 MB
Duration : 01:34:12
Language : English
Source : DvD
Subtitles : None
Genre : Comedy | Horror
IMDB Link : http://www.imdb.com/title/tt1185266/
IMDB Rating : 3.6/10
IMDB Votes : 2,544 Votes
-------------------------------------------------
http://i46.tinypic.com/5n13z8.jpg

-------------------------------------------------
Format : MPEG-4 Visual
Format profile : Advanced [email protected]
Format settings, BVOP : Yes
Format settings, QPel : No
Format settings, GMC : No warppoints
Format settings, Matrix : Custom
Codec ID : XVID
Codec ID/Hint : XviD
Duration : 1h 30mn
Bit rate : 967 Kbps
Width : 704 pixels
Height : 384 pixels
Display aspect ratio : 16:9
Frame rate : 23.976 fps
Resolution : 8 bits
Colorimetry : 4:2:0
Scan type : Progressive
Bits/(Pixel*Frame) : 0.149
Stream size : 625 MiB (89%)
Writing library : XviD 1.2.1
-------------------------------------------------
http://i45.tinypic.com/14lof2g.jpg

-------------------------------------------------
Format : MPEG Audio
Format version : Version 1
Format profile : Layer 3
Mode : Joint stereo / MS Stereo
Codec ID : 55
Codec ID/Hint : MP3
Duration : 1h 30mn
Bit rate mode : Constant
Bit rate : 112 Kbps
Channel(s) : 2 channels
Sampling rate : 44.1 KHz
Stream size : 72.4 MiB (10%)
Alignment : Split accross interleaves
Interleave, duration : 83 ms (2.00 video frames)
Interleave, preload duration : 500 ms
Writing library : LAME3.98
-------------------------------------------------
http://i46.tinypic.com/16ih2fo.jpg

-------------------------------------------------
When he makes a late-night movie delivery to a
strange town on Halloween, video store counter
jockey Stan Helsing (Steve Howey) finds himself
hunted by a who's who of slasher-film killers,
including Freddy Krueger, Michael Myers and Leatherface.
Now, Stan and his pals must use their knowledge
of horror flicks to defeat the villains and hack their
way to freedom. Bo Zenga directs this gleeful parody of
classic horror movies.

Starring: Steve Howey, Leslie Nielsen

Director: Bo Zenga
-------------------------------------------------

http://i49.tinypic.com/2vi137p.jpg

http://i26.tinypic.com/2n5dvl.jpg

http://i26.tinypic.com/bhjccn.jpg

http://i27.tinypic.com/260r4ud.jpg

http://i31.tinypic.com/2vwh98l.jpg

http://i32.tinypic.com/qqpekz.jpg

Related torrents

Torrent NameAddedSizeSeedLeechHealth
1 Year+ - in Movies1.14 GB00
1 Year+ - in Other1.73 GB00
1 Year+ - in Other1.09 GB00
1 Year+ - in Movies7.92 GB00
1 Year+ - in Movies20.21 GB00

Comments (0 Comments)




Please login or create a FREE account to post comments

Latest Searches

| CESSNA 195 FSX | georgia peach double | day 5 webrip w4f | I cant keep my d | friends s01 vf | father daughter relationship | teen dp anal | ms office 2016 | what do you you mean | Crude 2009 |