Quick Browse
Movies
TV shows
Music
Games
Applications
Anime
Other
Facebook
Advertising

Friends
Torrent Download
Movie4u
1337x.to
Torrent Downloads




Star Trek (2009) BluRay x264 1080P NL SUBBED 2Lions-Team


    Seeders : 0      Leechers : 1
Hash :A2C135EA546E29DC24180295E3AE9E380ADE5566
Added :1 Year+ in Movies
Size :8.75 GB
Stream :WATCH ONLINE @ Movie4u


Star Trek (2009) BluRay x264 1080P NL SUBBED 2Lions-Team
Free and Fast Download with Usenet 300GB+ free







Trackers List

Tracker NameLast CheckStatusSeedersLeechers
udp://tracker.publicbt.com:80/announce1 Year+success01




Torrent File Content (5 files)


STAR TREK 1080 P BluRay x264 (2009)(nl subs) 2Lions-Team
    INFO-READ ME FIRST 2Lions-Team
          logo 2Lions.jpg -
314.99 KB

          Star Trek (2009) BluRay 2Lions-Team.txt -
5.52 KB

          Torrent_downloaded_from_Demonoid.com.txt -
482 bytes

          Torrents aan geboden door _2lions.ons-forum.nl.txt -
517 bytes

    movie 2Lions-Team
          STAR_TREK_1080P_X264_NLSUBBED_JUST4FUN_TEAM.mkv -
8.75 GB



Description



Star Trek (2009) BluRay x264 1080P NL SUBBED

http://img180.imageshack.us/img180/6765/startrek3d.jpg


Verenigde Staten / Duitsland
Science-Fiction / Actie
126 minuten

geregisseerd door J.J. Abrams
met Chris Pine, Zachary Quinto en Eric Bana

James Tiberius Kirk is een ontzettende wildebras, maar blijkt ook een enorm getalenteerd ruimtevaarder te zijn, wanneer hij zich laat overhalen om een opleiding aan de Starfleet Academy te volgen. Bij het afleggen van zijn examen krijgt Kirk het aan de stok met zijn hyperintelligente collega Spock. De onbesuisde roekeloze Kirk en de berekenende kalme Spock zijn dan ook absolute tegenpolen. Naarmate de mannen elkaar beter leren kennen groeit echter de onderlinge waardering en dat is maar goed ook: als zij met het revolutionair futuristische ruimteschip USS Enterprise aan een zware en levensgevaarlijke reis beginnen moeten alle neuzen en ook alle oren, spits of niet, dezelfde kant op wijzen om de missie te laten slagen...


English


Star Trek (2009)
On the day of James Kirk's birth, his father dies on his ship in a last stand against a mysterious alien vessel. He was looking for Ambassador Spock, who is a child on Vulcan at that time, disdained by his neighbors for his half-human nature. Twenty years later, Kirk has grown into a young troublemaker inspired by Capt. Christopher Pike to fulfill his potential in Starfleet even as he annoys his instructors like young Lt. Spock. Suddenly, there is an emergency at Vulcan and the newly commissioned USS Enterprise is crewed with promising cadets like Nyota Uhura, Hikura Sulu, Pavel Chekov and even Kirk himself thanks to Leonard McCoy's medical trickery. Together, this crew will have an adventure in the final frontier where the old legend is altered forever even as the new version of it is just beginning.


Filmgegevens
-------- Regie: J.J. Abrams
-------- Acteurs: Chris Pine, Zachary Quinto en Eric Bana
-------- Genre: Science-Fiction / Actie
-------- Audio: Engels AC3 5.1
-------- Subtitels: Nederlands custom by ~ Just4fun-Team vertaalcrew ~ (instelbaar)(lossles)
-------- Beeld: 16:9
-------- Speelduur: 126 minuten
-------- Land: Verenigde Staten / Duitsland

Belangrijke info

-------- Compressie: x264
-------- Bron: Star.Trek.1080p.BluRay.x264-METiS

[code]File size : 8.75 GiB
Duration : 2h 6mn
Overall bit rate : 9 873 Kbps
Encoded date : UTC 2009-10-01 13:50:25
Writing application : mkvmerge v2.9.8 ('C'est le bon') built on Aug 13 2009 12:49:06
Writing library : libebml v0.7.7 + libmatroska v0.8.1

Video
ID : 1
Format : AVC
Format/Info : Advanced Video Codec
Format profile : [email protected]
Format settings, CABAC : Yes
Format settings, ReFrames : 5 frames
Muxing mode : Container [email protected]
Codec ID : V_MPEG4/ISO/AVC
Duration : 2h 6mn
Bit rate : 9 036 Kbps
Nominal bit rate : 9 232 Kbps
Width : 1 920 pixels
Height : 800 pixels
Display aspect ratio : 2.400
Frame rate : 23.976 fps
Resolution : 24 bits
Colorimetry : 4:2:0
Scan type : Progressive
Bits/(Pixel*Frame) : 0.245
Stream size : 8.00 GiB (91%)
Writing library : x264 core 76 r1271 496d79d
Encoding settings : cabac=1 / ref=5 / deblock=1:0:0 / analyse=0x3:0x133 / me=umh / subme=7 / psy=1 / psy_rd=1.0:0.0 / mixed_ref=1 / me_range=16 / chroma_me=1 / trellis=1 / 8x8dct=1 / cqm=0 / deadzone=21,11 / chroma_qp_offset=-2 / threads=6 / nr=0 / decimate=1 / mbaff=0 / bframes=3 / b_pyramid=0 / b_adapt=1 / b_bias=0 / direct=1 / wpredb=1 / keyint=250 / keyint_min=25 / scenecut=40 / rc_lookahead=40 / rc=2pass / mbtree=1 / bitrate=9232 / ratetol=1.0 / qcomp=0.60 / qpmin=10 / qpmax=51 / qpstep=4 / cplxblur=20.0 / qblur=0.5 / ip_ratio=1.40 / aq=1:1.00
Language : English

Audio
ID : 2
Format : AC-3
Format/Info : Audio Coding 3
Codec ID : A_AC3
Duration : 2h 6mn
Bit rate mode : Constant
Bit rate : 640 Kbps
Channel(s) : 6 channels
Channel positions : Front: L C R, Surround: L R, LFE
Sampling rate : 48.0 KHz
Stream size : 581 MiB (6%)

Text
ID : 3
Format : UTF-8
Codec ID : S_TEXT/UTF8
Codec ID/Info : UTF-8 Plain Text
Title : Dutch
Language : Dutch[/code]



Categorie : Beeld
Formaat : x264HD
Bron : Retail
Subs : Dutch (lossles)
Ondertitels : Nederlands (instelbaar)
Thanks : Just_4_fun_Team


http://www.moviemeter.nl/film/45768
http://www.imdb.com/title/tt0796366

*****************************************

Brought to you by
2Lions Team

meer zien??
Kom dan eens kijken op ons forum

http://www.2lions.ons-forum.nl

http://img35.imageshack.us/img35/7115/2lionsteam.jpg

******************************************

DON T HIT AND RUN Niet gelijk afhaken als de film binnen is blijf seeden.
Don`t quit after you finished the download, but keep seeding

Related torrents

Torrent NameAddedSizeSeedLeechHealth
1 Year+ - in TV shows5.12 GB451
1 Year+ - in Movies4.07 GB7347
1 Year+ - in Movies7.94 GB9176
1 Year+ - in Movies7.65 GB00
1 Year+ - in Movies5.46 GB00

Comments (0 Comments)




Please login or create a FREE account to post comments

Latest Searches

| White Heat by Autumn Jones Lake | independent women pt 1 | ya papi | empire ettv s03e08 | Still You Turn Me On | BBC December 2016 | virtual ocean | new jack swing vol 1 | A pool q | the glory song |