Quick Browse
Movies
TV shows
Music
Games
Applications
Anime
Other
Facebook
Advertising

Friends
Torrent Download
Movie4u
1337x.to
Torrent Downloads




Verified torrent Step Up 2 The Streets 2008 BRRip H264 AAC-Rx


    Seeders : 22      Leechers : 2
Hash :B0E4B1CCA65AB68C95FA746B1868A386329922F4
Added :1 Year+ by SAHIBGREWVerified torrent uploader in Movies
Size :1.43 GB
Stream :WATCH ONLINE @ Movie4u


Step Up 2 The Streets 2008 BRRip H264 AAC-Rx
Free and Fast Download with Usenet 300GB+ free







Trackers List

Tracker NameLast CheckStatusSeedersLeechers




Torrent File Content (7 files)


Step Up 2 The Streets 2008 BRRip H264 AAC-MS
     Step Up 2 The Streets 2008 BRRip H264 AAC-MS.mp4 -
1.43 GB

     Step Up 2.jpg -
212.82 KB

     INFO.txt -
1.45 KB

     Torrent downloaded from AhaShare.com.txt -
59 bytes

     Torrent downloaded from thepiratebay.org.txt -
48 bytes

     Torrent downloaded from Demonoid.com.txt -
47 bytes

     tracked_by_h33t_com.txt -
23 bytes



Description



http://i865.photobucket.com/albums/ab211/revisionx/Movies/StepUp2.jpg

Step Up 2 The Streets 2008 BRRip H264 AAC-Rx(Phoenix-RG).mp4
Format : MPEG-4
Format profile : Base Media
Codec ID : isom
File size : 1.43 GiB
Duration : 1h 37mn
Overall bit rate : 2 095 Kbps

Video #1
Format : AVC
Format/Info : Advanced Video Codec
Format profile : [email protected]
Format settings, CABAC : Yes
Format settings, ReFrames : 3 frames
Codec ID : avc1
Codec ID/Info : Advanced Video Coding
Duration : 1h 37mn
Bit rate mode : Variable
Bit rate : 1 800 Kbps
Maximum bit rate : 6 773 Kbps
Width : 1 280 pixels
Height : 692 pixels
Display aspect ratio : 1.850
Frame rate mode : Constant
Frame rate : 23.976 fps
Resolution : 24 bits
Colorimetry : 4:2:0
Scan type : Progressive
Bits/(Pixel*Frame) : 0.085
Stream size : 1.23 GiB (86%)
Writing library : x264 core 98 r1649 c54c47d

Audio #2
Format : AAC
Format/Info : Advanced Audio Codec
Format version : Version 4
Format profile : LC
Format settings, SBR : No
Codec ID : 40
Duration : 1h 37mn
Bit rate mode : Variable
Bit rate : 288 Kbps
Maximum bit rate : 389 Kbps
Channel(s) : 6 channels
Channel positions : Front: L C R, Rear: L R, LFE
Sampling rate : 48.0 KHz
Resolution : 16 bits
Stream size : 204 MiB (14%)

Related torrents

Torrent NameAddedSizeSeedLeechHealth
7 months ago - in Movies1.23 GB00
7 months ago - in Other1.2 GB00
7 months ago - in Movies1.87 GB00
7 months ago - in Other1.18 GB00
1 Year+ - in Movies2.06 GB12

Comments (0 Comments)




Please login or create a FREE account to post comments

Latest Searches

| The Pillars of the Earth 720p bluray | hotel comic | girls like you girls like you | MFC Yuno Gasai Lana Rain Future Diary | mitch miller gang | oj da juiceman Lord of the rings | boy on boy porn | k camp her off | busty grinds up | Pandoras Box Unleashing Evil |