Quick Browse
Movies
TV shows
Music
Games
Applications
Anime
Other
Facebook
Advertising

Friends
Torrent Download
Movie4u
1337x.to
Torrent Downloads




Verified torrent Steppin [The Movie] [DVD5] [ENG] [AC3] [Hannspree]


    Seeders : 3      Leechers : 0
Hash :3F34272BE60161803B78253B880A3000D15693AB
Added :1 Year+ by HannspreeVerified torrent uploader in Movies
Size :1.36 GB
Stream :WATCH ONLINE @ Movie4u


Steppin [The Movie] [DVD5] [ENG] [AC3] [Hannspree]
Free and Fast Download with Usenet 300GB+ free







Trackers List

Tracker NameLast CheckStatusSeedersLeechers




Torrent File Content (13 files)


Steppin [The Movie]
    Steppin [DVD]
          VIDEO_TS/VIDEO_TS.BUP -
12 KB

          VIDEO_TS/VIDEO_TS.IFO -
12 KB

          VIDEO_TS/VIDEO_TS.VOB -
58 KB

          VIDEO_TS/VTS_01_0.BUP -
62 KB

          VIDEO_TS/VTS_01_0.IFO -
62 KB

          VIDEO_TS/VTS_01_0.VOB -
58 KB

          VIDEO_TS/VTS_01_1.VOB -
1023.97 MB

          VIDEO_TS/VTS_01_2.VOB -
362.01 MB

          Steppin [Images]/Steppin [Cover].jpg -
1.37 MB

          Steppin [Images]/Steppin [Disc].jpg -
30.95 KB

          Steppin [Images]/Steppin [Screens].jpg -
164.65 KB

     Steppin.NFO -
3.94 KB

     Torrent downloaded from Demonoid.com.txt -
47 bytes



Description



=====================================================================================
[ Another free, high quality, ready to burn DVD I will be adding new torrents on a daily basis - Remember to seed ]
=====================================================================================
MOVIE TITLE: Steppin
LANGUAGE: English
MOVIE SUBS: No
BURN TESTED: Yes
FORMAT: Pal
GENRE: Comedy | Music
RUNTIME: 138 Minutes
YEAR: 2009
IMDB LINK: http://www.imdb.com/title/tt0826751/
=====================================================================================
MOVIE DESC:

Set on a university campus, the story line unfolds over a several month period in which the "Greeks" (fraternities and sororities) prepare for the culminating event the step show competition. Against this backdrop there are numerous subplots involving the meeting and maturation of a love relationship, a kidnapping, an avenging abused co-ed, fraternity initiation rites, step scenes, and the antics of students and faculty alike.
=====================================================================================
MOVIE SPECS:

GENERAL:
Complete name : Steppin [The Movie] [DVD5]
Format : MPEG-PS
File size : 1.35 GB
Duration : 138 Minutes
Overall bit rate : 2 228 Kbps

VIDEO:
ID : 224 (0xE0)
Format : MPEG Video
Format version : Version 2
Format profile : [email protected]
Format settings, BVOP : Yes
Format settings, Matrix : Default
Duration : 138 Minutes
Bit rate mode : Variable
Bit rate : 1 992 Kbps
Nominal bit rate : 9 608 Kbps
Width : 720 pixels
Height : 576 pixels
Display aspect ratio : 4:3
Frame rate : 25.000 fps
Standard : PAL
Color space : YUV
Chroma subsampling : 4:2:0
Bit depth : 8 bits
Scan type : Progressive
Bits/(Pixel*Frame) : 0.192
Stream size : 915 MiB (89%)

AUDIO:
ID : 128 (0x80)
Format : AC-3
Format/Info : Audio Coding 3
Mode extension : CM (complete main)
Duration : 138 Minutes
Bit rate mode : Constant
Bit rate : 192 Kbps
Channel(s) : 2 channels
Channel positions : Front: L R
Sampling rate : 48.0 KHz
Stream size : 88.2 MiB (9%)
=====================================================================================
TRACKERS:
http://inferno.demonoid.com:3402/announce
http://denis.stalker.h3q.com:6969/announce
http://nemesis.1337x.org/announce
http://exodus.1337x.org/announce
http://tracker.publicbt.com/announce
http://10.rarbg.com/announce
http://tracker.ilibr.org:6969/announce
http://tpb.tracker.prq.to/announce
http://rt.beeretracker.net/announce.php
http://red.tracker.prq.to/announce
http://tracker.torrentbox.com:2710/announce
=====================================================================================
[FOOT NOTE]
If you are happy with this download, it would be nice to hear your views or comments that you might have. Enjoy
=====================================================================================
Screen Shot Of Steppin [The Movie]
=====================================================================================
http://leetpic.com/images/steppinscr.jpg

=====================================================================================

Related torrents

Torrent NameAddedSizeSeedLeechHealth
Verified torrent
1 Year+ - in Movies1.63 GB03
Verified torrent
1 Year+ - in Movies1.16 GB02
Verified torrent
1 Year+ - in Movies3.39 GB15
Verified torrent
1 Year+ - in Movies1.16 GB00
Verified torrent
1 Year+ - in Movies1.22 GB00

Comments (0 Comments)




Please login or create a FREE account to post comments

Latest Searches

| lucci yfn 3 | two thirteen | before ten | Give up to me keyshia | 12 05 16 720p | gta III 1 6 android | babes in toyland 1993 | the hunger games 2012 dual audio hindi english | gta 4 | More Fast Furious |