Quick Browse
Movies
TV shows
Music
Games
Applications
Anime
Other
Facebook
Advertising

Friends
Torrent Download
Movie4u
1337x.to
Torrent Downloads




Verified torrent Stomp The Yard 2 Homecoming[2010]DvDScR-LW


    Seeders : 94      Leechers : 18
Hash :F9479156B832C688CF3BC5FAE6D40EAD054DC650
Added :1 Year+ by XoLWoXVerified torrent uploader in Movies
Size :693.87 MB
Stream :WATCH ONLINE @ Movie4u


Stomp The Yard 2 Homecoming[2010]DvDScR-LW
Free and Fast Download with Usenet 300GB+ free







Trackers List

Tracker NameLast CheckStatusSeedersLeechers




Torrent File Content (7 files)


Stomp The Yard 2 Homecoming[2010]DvDScR-LW
    Cover
          STYH-Cover.jpg -
56.75 KB

    Info
          Movie Info.nfo -
14.57 KB

          Movie Info.txt -
3.03 KB

    Movie
          Stomp The Yard 2 Homecoming[2010]DvDScR-LW.avi -
693.79 MB

    Trackers
          Torrent downloaded from AhaShare.com.txt -
59 bytes

          Torrent downloaded from Demonoid.com.txt -
47 bytes

          tracked_by_h33t_com.txt -
23 bytes



Description



http://i35.tinypic.com/2yvnyab.jpg

[color=red]-------------------------------------------------[/color]
http://i48.tinypic.com/k13v48.jpg

[color=red]-------------------------------------------------[/color]
File Name : Stomp The Yard 2 Homcoming[2010]DvDScR-LW
Type : Movie
Format : AVI
File Size : 693 MB
Duration : 01:27:39
Language : English
Source : DvD
Subtitles : None
Genre : Drama | Dance |
IMDB Link : http://www.imdb.com/title/tt1533817/
IMDB Rating : N/A
IMDB Votes : No Votes
[color=red]-------------------------------------------------[/color]
http://i46.tinypic.com/5n13z8.jpg

[color=red]-------------------------------------------------[/color]
Format : MPEG-4 Visual
Format profile : Advanced [email protected]
Format settings, BVOP : Yes
Format settings, QPel : No
Format settings, GMC : No warppoints
Format settings, Matrix : Default (H.263)
Muxing mode : Packed bitstream
Codec ID : XVID
Codec ID/Hint : XviD
Duration : 1h 27mn
Bit rate : 905 Kbps
Width : 640 pixels
Height : 352 pixels
Display aspect ratio : 16:9
Frame rate : 23.976 fps
Resolution : 8 bits
Colorimetry : 4:2:0
Scan type : Progressive
Bits/(Pixel*Frame) : 0.168
Stream size : 567 MiB (82%)
Writing library : XviD 1.2.1
[color=red]-------------------------------------------------[/color]
http://i45.tinypic.com/14lof2g.jpg

[color=red]-------------------------------------------------[/color]
Format : AC-3
Format/Info : Audio Coding 3
Codec ID : 2000
Duration : 1h 27mn
Bit rate mode : Constant
Bit rate : 192 Kbps
Channel(s) : 2 channels
Channel positions : L R
Sampling rate : 48.0 KHz
Stream size : 120 MiB (17%)
Alignment : Split accross interleaves
Interleave, duration : 42 ms (1.00 video frame)
Interleave, preload duration : 500 ms
[color=red]-------------------------------------------------[/color]
http://i46.tinypic.com/16ih2fo.jpg

[color=red]-------------------------------------------------[/color]
This sequel to the dance pic Stomp the Yard shadows
Truth University student Chance Harris (Collins Pennie)
on his quest to win a national step title for his school,
all while juggling the demands of work, school and personal
relationships. Freestyle dancer Stephen Boss (of the
television dance competition "So You Think You Can Dance")
co-stars as a fellow stepper who challenges Chance to
step up his game.

Starring: Collins Pennie, Pooch Hall

Director: Rob Hardy
[color=red]-------------------------------------------------[/color]

http://i49.tinypic.com/2vi137p.jpg

http://i38.tinypic.com/33ejwpx.jpg

http://i37.tinypic.com/30wpnhy.jpg

http://i38.tinypic.com/jsg5tw.jpg

http://i37.tinypic.com/j5v9mx.jpg

http://i35.tinypic.com/ayslef.jpg

Related torrents

Torrent NameAddedSizeSeedLeechHealth
1 Year+ - in Movies699.43 MB514
1 Year+ - in Movies842.71 MB00
1 Year+ - in Movies1.37 GB00
1 Year+ - in Movies1.3 GB014
1 Year+ - in Movies650.09 MB121

Comments (0 Comments)




Please login or create a FREE account to post comments

Latest Searches

| 103 P M Summer | scott long | Alle 40 goed New Wave Classics | Red Hot Fetish Collection Vol 50 Misato Kuninaka | den ko | a videos | jasper fforde zoltar | ATKGirlfriends 15 06 24 Henley Hart Virtual Date XXX 1080p MP4 KTR | Octopus guy lawson | Planet Earth II 2016 S01E05 1080p |