Quick Browse
Movies
TV shows
Music
Games
Applications
Anime
Other
Facebook
Advertising

Friends
Torrent Download
Movie4u
1337x.to
Torrent Downloads




Verified torrent Stone 2010 R5 MIC 5 1 XVID AC3 HQ Hive-CM8


    Seeders : 0      Leechers : 0
Hash :AC22BC00065F9920227229608A332E662FB8B815
Added :1 Year+ by memory100Verified torrent uploader in Movies
Size :1.58 GB
Stream :WATCH ONLINE @ Movie4u


Stone 2010 R5 MIC 5 1 XVID AC3 HQ Hive-CM8
Free and Fast Download with Usenet 300GB+ free







Trackers List

Tracker NameLast CheckStatusSeedersLeechers




Torrent File Content (6 files)


Stone.2010.R5.MIC.5.1.XVID.AC3.HQ.Hive-CM8
     NW RG.nfo -
12.96 KB

     NW RG.txt -
126 bytes

     Pleas read!!!!.txt -
126 bytes

     Stone.2010.R5.MIC.5.1.XVID.AC3.HQ.Hive-CM8.avi -
1.58 GB

     Stone.2010.R5.MIC.5.1.XVID.AC3.HQ.Hive-CM8.nfo -
3.43 KB

     sample.avi -
6.35 MB



Description



http://img571.imageshack.us/img571/2592/stoney.jpg

[code]
Stone 2010 R5 MIC 5.1 XVID AC3 HQ Hive-CM8
Thx Hive

CM8 Doing It Right The First Time

Sources:
Video: Russian DVD5
Stoun.2010.DVD5 THX
Audio: Stone 2010 R5 MiC Xvid Noir THX


Encode Video:
added sharpness,bit brightness, denoise,rgb

Encode Audio:
well the mic itself is just a mic, removed noise,hiss,some scratches. added gain,the voices are loud and clear unlike the previous mics eg "you again".
i added the ac3 effects from the russian ac3 5.1 effects, which makes it more complete and hearable, and since the mic is strong it doesnt get lost within the effects.
watch sample

if a nice line comes up i will do a proper 5.1 audio only

Video: 720x400 @bitrate 1800 2pass
Audio: MIC AC3 5.1 @448
Sample: yes included

General
Complete name : Stone.2010.R5.MIC.5.1.XVID.AC3.HQ.Hive-CM8.avi
Format : AVI
Format/Info : Audio Video Interleave
File size : 1.58 GiB
Duration : 1h 40mn
Overall bit rate : 2 242 Kbps
Writing application : Nandub v1.0rc2
Writing library : Nandub build 1853/release

Video
ID : 0
Format : MPEG-4 Visual
Format profile : Advanced [email protected]
Format settings, BVOP : Yes
Format settings, QPel : Yes
Format settings, GMC : No warppoints
Format settings, Matrix : Default (H.263)
Muxing mode : Packed bitstream
Codec ID : XVID
Codec ID/Hint : XviD
Duration : 1h 40mn
Bit rate : 1 800 Kbps
Width : 720 pixels
Height : 400 pixels
Display aspect ratio : 16:9
Frame rate : 25.000 fps
Color space : YUV
Chroma subsampling : 4:2:0
Bit depth : 8 bits
Scan type : Progressive
Bits/(Pixel*Frame) : 0.250
Stream size : 1.27 GiB (80%)
Writing library : XviD 1.2.1 (UTC 2008-12-04)

Audio
ID : 1
Format : AC-3
Format/Info : Audio Coding 3
Mode extension : CM (complete main)
Codec ID : 2000
Duration : 1h 37mn
Bit rate mode : Constant
Bit rate : 448 Kbps
Channel(s) : 6 channels
Channel positions : Front: L C R, Side: L R, LFE
Sampling rate : 48.0 KHz
Bit depth : 16 bits
Stream size : 312 MiB (19%)
Alignment : Split accross interleaves
Interleave, duration : 41 ms (1.04 video frame)
Interleave, preload duration : 500 ms
Greetz

DiGiTALiNK -iNK, IMAGiNE, LEGi0N, LUSi,ViSiON,MAGNET,CLASSiFiED,
MEMORY100,goldadvance,SAFC,Unevano,Pinnz,Wayne
and all P2P groups
Great Work Guys
[/code]
Screens:
http://img513.imageshack.us/img513/6299/sto1.png

http://img143.imageshack.us/img143/5762/sto2.png

Related torrents

Torrent NameAddedSizeSeedLeechHealth
1 Year+ - in Movies1.58 GB354
1 Year+ - in Movies1.37 GB01
3 months ago - in Movies1.97 GB00
3 months ago - in Movies1.4 GB00
3 months ago - in Movies1.4 GB1,252672

Comments (0 Comments)




Please login or create a FREE account to post comments

Latest Searches

| DorcelClub 2015 Lola Taylor And Taylor Sands | nadine jansen micky 7th month 2016 01 31 mp4 | O T Genasis Rhythm Bricks | the truth about isis | XXX Ben English | primal rahyndee | ol dirty bastard the dirty version | 21footart 12 2016 | DorcelClub Lola Taylor And Taylor Sands | Corina |