Quick Browse
Movies
TV shows
Music
Games
Applications
Anime
Other
Facebook
Friends
Torrent Download
Movie4u
1337x.to
Torrent Downloads

Storks - Cicogne in missione (2016) H264 Italian English Ac3 5 1 sub ita NUita eng iCV-MIRCrew


    Seeders : 0      Leechers : 0


Trackers List

Tracker NameLast CheckStatusSeedersLeechers




Torrent File Content (1 file)


     Cicogne in missione - Storks (2016).H264.ita.eng.sub.ita.eng.iCV-MIRCrew.mkv -
1.32 GB



Description



Movies : Animation : DVD Rip : English
Storks - Cicogne in missione (2016).H264.Italian.English.Ac3.5.1.sub.ita.NUita.eng.iCV-MIRCrew




NO FOUND ONLY ORIGINAL RELEASE



My release is always in double track audio italian and Original audio
for select it use VLC or dvd player home
not use wmp

Cicogne in missione - Storks (2016)







DATA USCITA: 20 ottobre 2016
GENERE: Animazione , Commedia , Family
ANNO: 2016
REGIA: Nicholas Stoller, Doug Sweetland
SCENEGGIATURA: Nicholas Stoller
MONTAGGIO: John Venzon
PRODUZIONE: Warner Bros. Animation
DISTRIBUZIONE: Warner Bros. Pictures Italia
PAESE: USA
DURATA: 90 Min
FORMATO: 2D e 3D



Doppiatori:

Alessia Marcuzzi, Federico Russo, Vincenzo Salemme



Le cicogne portano i bambini... o almeno una volta era così. Adesso consegnano i pacchi per Cornerstore.com, il gigante del commercio online. Junior, il miglior impiegato dell'azienda, è sul punto di ricevere una promozione quando per sbaglio attiva la Macchina Fabbrica-Bambini, dando così vita a una bimba adorabile e assolutamente non autorizzata.................



Storks have moved on from delivering babies to packages. But when an order for a baby appears, the best delivery stork must scramble to fix the error by delivering the baby. .................








[spoiler]
General
Unique ID : 310998198455465684970139793398010995540 (0xE9F81305B0E02BADBA42E82D33CBE354)
Complete name : Cicogne in missione - Storks (2016).H264.ita.eng.sub.ita.eng.iCV-MIRCrew.mkv
Format : Matroska
Format version : Version 2
File size : 1.32 GiB
Duration : 1h 26mn
Overall bit rate : 2 172 Kbps
Movie name : VISIT www.icv-crew.org
Encoded date : UTC 2016-12-21 15:09:26
Writing application : Lavf54.63.100
Writing library : Lavf54.63.100
COPYRIGHT : robbyrs

Video
ID : 1
Format : AVC
Format/Info : Advanced Video Codec
Format profile : [email protected]/* */
Format settings, CABAC : Yes
Format settings, ReFrames : 2 frames
Codec ID : V_MPEG4/ISO/AVC
Duration : 1h 26mn
Bit rate : 1 270 Kbps
Width : 720 pixels
Height : 304 pixels
Display aspect ratio : 2.40:1
Frame rate mode : Variable
Frame rate : 23.976 fps
Color space : YUV
Chroma subsampling : 4:2:0
Bit depth : 8 bits
Scan type : Progressive
Bits/(Pixel*Frame) : 0.242
Stream size : 767 MiB (57%)
Writing library : x264 core 130 r2273
Encoding settings : cabac=1 / ref=2 / deblock=1:0:0 / analyse=0x1:0x131 / me=hex / subme=7 / psy=1 / psy_rd=1.00:0.00 / mixed_ref=0 / me_range=16 / chroma_me=1 / trellis=1 / 8x8dct=0 / cqm=0 / deadzone=21,11 / fast_pskip=1 / chroma_qp_offset=-2 / threads=12 / lookahead_threads=2 / sliced_threads=0 / nr=0 / decimate=1 / interlaced=0 / bluray_compat=0 / constrained_intra=0 / bframes=3 / b_pyramid=0 / b_adapt=1 / b_bias=0 / direct=3 / weightb=1 / open_gop=0 / weightp=2 / keyint=230 / keyint_min=23 / scenecut=40 / intra_refresh=0 / rc_lookahead=40 / rc=2pass / mbtree=1 / bitrate=1270 / ratetol=1.0 / qcomp=0.60 / qpmin=10 / qpmax=69 / qpstep=4 / cplxblur=20.0 / qblur=0.5 / vbv_maxrate=24000 / vbv_bufsize=24000 / nal_hrd=none / ip_ratio=1.40 / aq=1:1.00
Default : Yes
Forced : No
DURATION : 01:26:57.879000000
NUMBER_OF_FRAMES : 125104
NUMBER_OF_BYTES : 3783707480
_STATISTICS_WRITING_APP : mkvmerge v9.6.0 ('Slave To Your Mind') 32bit
_STATISTICS_WRITING_DATE_UTC : 2016-12-20 21:33:04
_STATISTICS_TAGS : BPS DURATION NUMBER_OF_FRAMES NUMBER_OF_BYTES

Audio #1
ID : 2
Format : AC-3
Format/Info : Audio Coding 3
Mode extension : CM (complete main)
Codec ID : A_AC3
Duration : 1h 26mn
Bit rate mode : Constant
Bit rate : 448 Kbps
Channel(s) : 6 channels
Channel positions : Front: L C R, Side: L R, LFE
Sampling rate : 48.0 KHz
Bit depth : 16 bits
Compression mode : Lossy
Delay relative to video : 1mn 5s
Stream size : 279 MiB (21%)
Language : Italian
Default : Yes
Forced : No
DURATION : 01:26:57.888000000
NUMBER_OF_FRAMES : 163059
NUMBER_OF_BYTES : 292201728
_STATISTICS_WRITING_APP : mkvmerge v9.6.0 ('Slave To Your Mind') 32bit
_STATISTICS_WRITING_DATE_UTC : 2016-12-20 21:33:04
_STATISTICS_TAGS : BPS DURATION NUMBER_OF_FRAMES NUMBER_OF_BYTES

Audio #2
ID : 3
Format : AC-3
Format/Info : Audio Coding 3
Mode extension : CM (complete main)
Codec ID : A_AC3
Duration : 1h 26mn
Bit rate mode : Constant
Bit rate : 448 Kbps
Channel(s) : 6 channels
Channel positions : Front: L C R, Side: L R, LFE
Sampling rate : 48.0 KHz
Bit depth : 16 bits
Compression mode : Lossy
Delay relative to video : 1mn 5s
Stream size : 279 MiB (21%)
Language : English
Default : No
Forced : No
DURATION : 01:26:57.888000000
NUMBER_OF_FRAMES : 489177
NUMBER_OF_BYTES : 984225248
_STATISTICS_WRITING_APP : mkvmerge v9.6.0 ('Slave To Your Mind') 32bit
_STATISTICS_WRITING_DATE_UTC : 2016-12-20 21:33:04
_STATISTICS_TAGS : BPS DURATION NUMBER_OF_FRAMES NUMBER_OF_BYTES

Text #1
ID : 4
Format : UTF-8
Codec ID : S_TEXT/UTF8
Codec ID/Info : UTF-8 Plain Text
Title : Sub. Ita. Forced
Language : Italian
Default : Yes
Forced : Yes
DURATION : 01:06:23.728000000
NUMBER_OF_FRAMES : 31
NUMBER_OF_BYTES : 701
_STATISTICS_WRITING_APP : mkvmerge v9.6.0 ('Slave To Your Mind') 32bit
_STATISTICS_WRITING_DATE_UTC : 2016-12-20 21:33:04
_STATISTICS_TAGS : BPS DURATION NUMBER_OF_FRAMES NUMBER_OF_BYTES

Text #2
ID : 5
Format : UTF-8
Codec ID : S_TEXT/UTF8
Codec ID/Info : UTF-8 Plain Text
Title : Sub. Ita. Non Udenti
Language : Italian
Default : No
Forced : No
DURATION : 01:22:04.836000000
NUMBER_OF_FRAMES : 1755
NUMBER_OF_BYTES : 48848
_STATISTICS_WRITING_APP : mkvmerge v9.6.0 ('Slave To Your Mind') 32bit
_STATISTICS_WRITING_DATE_UTC : 2016-12-20 21:33:04
_STATISTICS_TAGS : BPS DURATION NUMBER_OF_FRAMES NUMBER_OF_BYTES

Text #3
ID : 6
Format : UTF-8
Codec ID : S_TEXT/UTF8
Codec ID/Info : UTF-8 Plain Text
Title : Sub. Eng. Not Hearing
Language : English
Default : No
Forced : No
DURATION : 01:22:04.836000000
NUMBER_OF_FRAMES : 1715
NUMBER_OF_BYTES : 50245
_STATISTICS_WRITING_APP : mkvmerge v9.6.0 ('Slave To Your Mind') 32bit
_STATISTICS_WRITING_DATE_UTC : 2016-12-20 21:33:04
_STATISTICS_TAGS : BPS DURATION NUMBER_OF_FRAMES NUMBER_OF_BYTES

Menu
00:00:00.000 : :00:00:00.000
00:10:26.501 : :00:10:26.501
00:20:35.734 : :00:20:35.734
00:30:24.406 : :00:30:24.406
00:39:30.034 : :00:39:30.034
00:50:24.480 : :00:50:24.480
00:59:24.436 : :00:59:24.436
01:07:06.022 : :01:07:06.022
01:14:28.297 : :01:14:28.297
01:20:53.599 : :01:20:53.599


[/spoiler]



Facebook Twitter Google Digg Reddit LinkedIn StumbleUpon Email Show Demonoid some love with BitCoin: 1DNoidJdotDyNMm5CxA8XfbgCH8KsCjco3 How to get BitCoins?

Related torrents

Torrent NameAddedSizeSeedLeechHealth
2 months ago - in Movies1.57 GB00
Last Month - in Movies1.33 GB00
Last Month - in Movies1.38 GB00
5 months ago - in Movies1.23 GB00
5 months ago - in Movies1.67 GB00

Comments (0 Comments)




Please login or create a FREE account to post comments

Latest Searches

| passcape full | bollywood india | Pieces Of Eight Live | red up 3 | public airport | asian fuck girl | Chrissy Teigens | naked airport | officer Lil Wayne | The Fatal Fortune Castle |