Quick Browse
Movies
TV shows
Music
Games
Applications
Anime
Other
Facebook
Advertising

Friends
Torrent Download
Movie4u
1337x.to
Torrent Downloads




Verified torrent Street Light (2011) Bengali 1CD DVDScr XviD MP3 [email protected]


    Seeders : 1      Leechers : 8

Trackers List

Tracker NameLast CheckStatusSeedersLeechers




Torrent File Content (2 files)


Street Light (2011) 1CD DVDScr XviD MP3 ESubs(www.mastitorrents.com)
     Street Light (2011) 1CD DVDScr XviD MP3 ESubs(www.mastitorrents.com).avi -
692.67 MB

     www.mastitorrents.com.txt -
507 bytes



Description



[color=red][font=Georgia]mastitorrents.com

http://mastitorrents.com/forums/index.php

General Source : joylogy (Thanks!)
Format : AVI
Format/Info : Audio
Video Interleave
File size : 693 MiB
Duration : 2h 13mn
Overall bit rate : 723 Kbps
Video ID : 0 Format : MPEG-4
Visual Format profile : Advanced
[email protected] Format settings, BVOP : Yes
Format settings, QPel : No
Format settings, GMC : No warppoints
Format settings, Matrix : Default (H.263)
Codec ID : XVID Codec ID/Hint : XviD
Duration : 2h 13mn Bit rate : 629 Kbps
Width : 640 pixels
Height : 304 pixels
Display aspect ratio : 2.2:1
Frame rate : 29.970 fps
Resolution : 8 bits Colorimetry : 4:2:0
Scan type : Progressive
Bits/(Pixel*Frame) : 0.108
Stream size : 602 MiB (87%)
Writing library : XviD
1.2.1 (UTC 2008-12-04)
Audio ID : 1 Format : MPEG Audio
Format version : Version 1
Format profile : Layer 3
Mode : Joint stereo
Format_Settings_ModeExtension : MS Stereo
Codec ID : 55 Codec ID/
Hint : MP3
Duration : 2h 13mn
Bit rate mode : Variable
Bit rate : 83.0 Kbps
Nominal bit rate : 96.0 Kbps
Channel(s) : 2 channels
Sampling rate : 32.0 KHz
Stream size : 79.5 MiB (11%)
Alignment : Aligned on interleaves
Interleave, duration : 36 ms (1.08 video frame)
Interleave, preload
duration : 256 ms
Title : S.L-DVDScr-(2011)_track_1_ Writing library : LAME3.98r Encoding settings : -m j -V 4 -q 2 -lowpass 15.1 --abr 96
[/font][/color]

http://www.maxupload.net/images/25686649970733992892.jpeg

http://www.maxupload.net/images/88531640166550708687.jpeg

http://www.maxupload.net/images/47940197131036262868.jpeg

http://www.maxupload.net/images/77662438151965913964.jpeg

http://www.maxupload.net/images/04392837114799369107.jpeg

http://www.maxupload.net/images/63348201969166287530.jpeg

http://www.maxupload.net/images/09242839230989787565.jpeg

http://www.maxupload.net/images/82988613532595254510.jpeg

http://www.maxupload.net/images/58403678629160681782.jpeg

http://www.maxupload.net/images/74156815394203319026.jpeg

Related torrents

Torrent NameAddedSizeSeedLeechHealth
1 Year+ - in Movies640.69 MB210
1 Comments
1 Good
Verified torrent
1 Year+ - in Movies693.39 MB677
Verified torrent
1 Year+ - in Movies705.61 MB9371,095
Verified torrent
1 Year+ - in Movies679.28 MB24
1 Comments
1 Good
Verified torrent
1 Year+ - in Movies709.07 MB105

Comments (0 Comments)




Please login or create a FREE account to post comments

Latest Searches

| liberte metallica | miracle of ultra | brian regan live from | stella cotton candy | china nature | best of Papa Roach | The Haunted s01e20 | Valentina Nappi Massage 1080p | hack gems dragon city cheat engine 6 3 | if i did |