Quick Browse
Movies
TV shows
Music
Games
Applications
Anime
Other

Donate and Support

Friends
Torrents.me
Torrent Download
Free Movies
1337x
RARBG
Torrent Downloads

Verified torrent Student of the Year 2012 DVDRip Hindi {Eng Sub]


    Seeders : 1      Leechers : 0
Hash :4CDDE9A70506F2E9176FE7041200AF5B2265530D
Added :1 Year+ by souravfileVerified torrent uploader in Movies
Size :688.69 MB
Stream :Watch Full Movies Online @ Movie4u
Share :


Student of the Year 2012 DVDRip Hindi {Eng Sub]
Anonymous and Direct Download 300GB+ free







Warning! Do not Download Torrents Without a VPN!
Your IP Address is .   And Location is
Your Internet Provider and Government can track your torrent Activity!  Hide your IP ADDRESS with a VPN!
We Strongly Recommend Using SpyOFF Torrent VPN to Anonymize your Torrenting. It's FREE For 15 Days!

Note :

Please Update (Trackers Info) Before Downloading Torrents to See Updated Seeders And Leechers for Batter Download Speed.

Trackers List

Tracker NameLast CheckStatusSeedersLeechers




Torrent File Content (3 files)


Student of the Year 2012 DVDRip Hindi {Eng Sub]
     Student of the Year 2012 DVDRip Hindi {Eng Sub].mkv -
688.69 MB

     Torrent Downloaded From Digtorrent.org.txt -
346 bytes

     Torrent downloaded from souravfile torrents on BTScene.eu.txt -
69 bytes



Description



http://hostpicturefree.com/images/bannerlnl.gif


Cover:

http://www.freeimgsharing.com/images/88179599200059444155.jpg


Release info:

[code]General
Format : Matroska
Format version : Version 2
File size : 689 MiB
Duration : 2h 26mn
Overall bit rate mode : Variable
Overall bit rate : 659 Kbps


Video
ID : 1
Format : MPEG-4 Visual
Format profile : Advanced [email protected]
Format settings, BVOP : Yes
Format settings, QPel : No
Format settings, GMC : No warppoints
Format settings, Matrix : Custom
Codec ID : V_MS/VFW/FOURCC / XVID
Codec ID/Hint : XviD
Duration : 2h 26mn
Bit rate : 558 Kbps
Width : 608 pixels
Height : 256 pixels
Display aspect ratio : 2.40:1
Frame rate mode : Constant
Frame rate : 23.976 fps
Color space : YUV
Chroma subsampling : 4:2:0
Bit depth : 8 bits
Scan type : Progressive
Compression mode : Lossy
Bits/(Pixel*Frame) : 0.150
Stream size : 583 MiB (85%)
Title : Student of the Year
Writing library : XviD 1.2.1 (UTC 2008-12-04)
Language : Hindi
Default : Yes
Forced : No

Audio
ID : 2
Format : MPEG Audio
Format version : Version 1
Format profile : Layer 3
Mode : Joint stereo
Muxing mode : Header stripping
Codec ID : A_MPEG/L3
Codec ID/Hint : MP3
Duration : 2h 22mn
Bit rate mode : Variable
Bit rate : 88.0 Kbps
Channel(s) : 2 channels
Sampling rate : 32.0 KHz
Compression mode : Lossy
Delay relative to video : 252ms
Stream size : 89.6 MiB (13%)
Title : Student of the Year
Writing library : LAME3.99r
Encoding settings : -m j -V 4 -q 2 -lowpass 15.1 --abr 88
Language : Hindi
Default : Yes
Forced : No

Text
ID : 3
Format : UTF-8
Codec ID : S_TEXT/UTF8
Codec ID/Info : UTF-8 Plain Text
Title : Student of the Year
Language : English
Default : Yes
Forced : No

Source:
credit to original movie ripper DDR (Thanks)[/code]

IMDB Info:

[code]Dean Yoginder Vashisht (Rishi Kapoor), retired, has fallen gravely ill. Several students from his final year at St. Theresa's College rush to his side. In flashbacks, they all recall the events that none of them have gotten over yet, including the dean, ...
Director: Karan Johar
Writers: Karan Johar, Renzil D'Silva (screenplay)
Stars: Sidharth Malhotra, Alia Bhatt and Varun Dhawan

Genres: Comedy | Romance[/code]

http://www.imdb.com/title/tt2172071/

Screen Shot:

http://www.shotpix.com/images/90482920374149302339.png

http://www.shotpix.com/images/63416155164776130759.png

http://www.shotpix.com/images/83939928233557989481.png

http://www.shotpix.com/images/12868742043697879459.png

http://www.shotpix.com/images/61610066300079028479.png

http://www.shotpix.com/images/27130123617161155126.png

Related torrents

Torrent NameAddedSizeSeedLeechHealth
1 Year+ - in Movies964.83 MB00
1 Year+ - in Movies969.51 MB07
1 Year+ - in Movies975.11 MB00
1 Year+ - in Movies975.11 MB00
1 Year+ - in Movies694.39 MB00

Comments (0 Comments)




Please login or create a FREE account to post comments

Latest Searches

| sasha grey out numbered | dick stuck in a fleshlight | pro studios pack | future 56 nights avi | 062217 paco | tiesto will be here | if I wer | fcpx title | Star wars episode 6 1983 dual audio 720p | the haves and nots s01e20 |