Quick Browse
Movies
TV shows
Music
Games
Applications
Anime
Other
Facebook
Advertising

Friends
Torrent Download
Movie4u
1337x.to
Torrent Downloads




Sucker.Punch.2011.iTALiAN.MD.720p.BDRip.XviD-TrTd_CREW


    Seeders : 0      Leechers : 0
Hash :5FE1E732A761055EBF554A9DFAA610EE984BCA2A
Added :1 Year+ by ignazio19Verified torrent uploader in Movies
Size :1.36 GB
Stream :WATCH ONLINE @ Movie4u


Sucker.Punch.2011.iTALiAN.MD.720p.BDRip.XviD-TrTd_CREW
Free and Fast Download with Usenet 300GB+ free







Trackers List

Tracker NameLast CheckStatusSeedersLeechers




Torrent File Content (3 files)


Sucker.Punch.2011.iTALiAN.MD.720p.BDRip.XviD-TrTd_CREW
     Sucker.Punch.2011.iTALiAN.MD.720p.BDRip.XviD-TrTd_CREW.avi -
1.36 GB

     presentazione.rtf -
30.64 KB

     presentazione.txt -
266 bytes



Description



Traccia Audio MD-TNZ su nostro encode [Russo]


http://www.torrented.org/public/phpbb3/images/presenta.png


http://img232.imageshack.us/img232/6359/newprojecthy.png


http://img17.imageshack.us/img17/5041/suckerpunch.png




http://www.torrented.org/public/phpbb3/images/info%20film.png



[color=red]USCITA CINEMA:[/color] 25/03/2011
[color=red]REGIA:[/color] Zack Snyder
[color=red]SCENEGGIATURA:[/color] Zack Snyder, Steve Shibuya
[color=red]ATTORI:[/color] Emily Browning, Jena Malone, Jamie Chung, Vanessa Hudgens, Abbie Cornish, Carla Gugino, Jon Hamm, Scott Glenn, Oscar Isaac, Danny Bristol, Vicky Lambert, Juliana Semenova, Annie Au, Malcolm Scott


[color=red]FOTOGRAFIA:[/color] Larry Fong
[color=red]MONTAGGIO:[/color] William Hoy
[color=red]MUSICHE:[/color] Tyler Bates, Marius De Vries
[color=red]PRODUZIONE:[/color] Cruel & Unusual Films, Warner Bros. Pictures
[color=red]DISTRIBUZIONE:[/color] Warner Bros. Pictures
[color=red]PAESE:[/color] USA 2011
[color=red]GENERE:[/color] Azione, Thriller, Fantasy
[color=red]DURATA:[/color] 120 Min
[color=red]FORMATO:[/color] Colore 2.35 : 1


[spoiler]General
Count : 259
Count of stream of this kind : 1
Kind of stream : General
Kind of stream : General
Stream identifier : 0
Count of video streams : 1
Count of audio streams : 1
Video_Format_List : MPEG-4 Visual
Video_Format_WithHint_List : MPEG-4 Visual (XviD)
Codecs Video : XviD
Audio_Format_List : MPEG Audio
Audio_Format_WithHint_List : MPEG Audio (MP3)
Audio codecs : MPEG-1 Audio layer 3
Complete name : \Sucker.Punch.2011.iTALiAN.MD.720p.BDRip.XviD-TrTd_CREW\Sucker.Punch.2011.iTALiAN.MD.720p.BDRip.XviD-TrTd_CREW.avi
Folder name : Sucker.Punch.2011.iTALiAN.MD.720p.BDRip.XviD-TrTd_CREW
File name : Sucker.Punch.2011.iTALiAN.MD.720p.BDRip.XviD-TrTd_CREW
File extension : avi
Format : AVI
Format : AVI
Format/Info : Audio Video Interleave
Format/Extensions usually used : avi
Interleaved : Yes
Codec : AVI
Codec : AVI
Codec/Info : Audio Video Interleave
Codec/Extensions usually used : avi
File size : 1461798912
File size : 1.36 GiB
File size : 1 GiB
File size : 1.4 GiB
File size : 1.36 GiB
File size : 1.361 GiB
Duration : 6585585
Duration : 1h 49mn
Duration : 1h 49mn 45s 585ms
Duration : 1h 49mn
Duration : 01:49:45.585
Overall bit rate : 1775755
Overall bit rate : 1 776 Kbps
Stream size : 7748566
Stream size : 7.39 MiB (1%)
Stream size : 7 MiB
Stream size : 7.4 MiB
Stream size : 7.39 MiB
Stream size : 7.390 MiB
Stream size : 7.39 MiB (1%)
Proportion of this stream : 0.00530
Title : Sucker.Punch.2011.iTALiAN.MD.720p.BDRip.XviD-TrTd_CREW
Movie name : Sucker.Punch.2011.iTALiAN.MD.720p.BDRip.XviD-TrTd_CREW
File creation date : UTC 2011-06-22 16:15:40.856
File creation date (local) : 2011-06-22 18:15:40.856
File last modification date : UTC 2011-06-21 22:42:44.000
File last modification date (loc : 2011-06-22 00:42:44.000
Writing application : VirtualDubMod 1.5.10.2 (build 2542/release)
Writing library : VirtualDubMod build 2542/release
Writing library : VirtualDubMod build 2542/release
Comment : Traccia Audio [MD-TNZ] sul nostro encoder [Russo]

Video
Count : 148
Count of stream of this kind : 1
Kind of stream : Video
Kind of stream : Video
Stream identifier : 0
ID : 0
ID : 0
Format : MPEG-4 Visual
Format profile : [email protected]
Format settings : BVOP
Format settings, BVOP : Yes
Format settings, BVOP : Yes
Format settings, QPel : No
Format settings, QPel : No
Format settings, GMC : 0
Format settings, GMC : No warppoints
Format settings, Matrix : Default (H.263)
Format settings, Matrix : Default (H.263)
Muxing mode : Packed bitstream
Codec ID : XVID
Codec ID/Hint : XviD
Codec ID/Url : http://mediaarea.net/XVID
Codec : XVID
Codec : XviD
Codec/Family : MPEG-4V
Codec/Info : XviD project
Codec/Url : http://www.xvid.org/Downloads.15.0.html
Codec/CC : XVID
Codec profile : [email protected]
Codec settings : BVOP / Packed Bitstream
Codec settings, Packet bitstream : Yes
Codec settings, BVOP : Yes
Codec settings, QPel : No
Codec settings, GMC : 0
Codec settings, GMC : No warppoints
Codec settings, Matrix : Default (H.263)
Duration : 6585585
Duration : 1h 49mn
Duration : 1h 49mn 45s 585ms
Duration : 1h 49mn
Duration : 01:49:45.585
Bit rate : 1446345
Bit rate : 1 446 Kbps
Width : 1280
Width : 1 280 pixels
Height : 528
Height : 528 pixels
Pixel aspect ratio : 1.000
Display aspect ratio : 2.424
Display aspect ratio : 2.40:1
Frame rate : 23.976
Frame rate : 23.976 fps
Frame count : 157896
Resolution : 24
Resolution : 24 bits
Colorimetry : 4:2:0
Scan type : Progressive
Scan type : Progressive
Interlacement : PPF
Interlacement : Progressive
Bits/(Pixel*Frame) : 0.089
Delay : 0
Stream size : 1190628296
Stream size : 1.11 GiB (81%)
Stream size : 1 GiB
Stream size : 1.1 GiB
Stream size : 1.11 GiB
Stream size : 1.109 GiB
Stream size : 1.11 GiB (81%)
Proportion of this stream : 0.81450
Title : Sucker.Punch.2011.iTALiAN.MD.720p.BDRip.XviD-TrTd_CREW
Writing library : XviD0050
Writing library : XviD 1.2.1 (UTC 2008-12-04)
Writing library/Name : XviD
Writing library/Version : 1.2.1
Writing library/Date : UTC 2008-12-04

Audio
Count : 129
Count of stream of this kind : 1
Kind of stream : Audio
Kind of stream : Audio
Stream identifier : 0
ID : 1
ID : 1
Format : MPEG Audio
Format version : Version 1
Format profile : Layer 3
Format settings : Joint stereo
Format_Settings_Mode : Joint stereo
Codec ID : 55
Codec ID/Hint : MP3
Codec ID/Url : http://www.iis.fraunhofer.de/amm/index.html
Codec : MPA1L3
Codec : MPEG-1 Audio layer 3
Codec/Family : MPEG-1
Codec/Info : MPEG-1 or 2 layer 3
Codec/Url : http://www.iis.fraunhofer.de/amm/index.html
Codec/CC : 55
Codec profile : Joint stereo
Duration : 6585551
Duration : 1h 49mn
Duration : 1h 49mn 45s 551ms
Duration : 1h 49mn
Duration : 01:49:45.551
Bit rate mode : CBR
Bit rate mode : Constant
Bit rate : 320000
Bit rate : 320 Kbps
Channel(s) : 2
Channel(s) : 2 channels
Sampling rate : 48000
Sampling rate : 48.0 KHz
SamplingCount : 316106448
Resolution : 16
Resolution : 16 bits
Delay : 0
Video delay : 0
Video0 delay : 0
Stream size : 263422050
Stream size : 251 MiB (18%)
Stream size : 251 MiB
Stream size : 251 MiB
Stream size : 251 MiB
Stream size : 251.2 MiB
Stream size : 251 MiB (18%)
Proportion of this stream : 0.18020
Alignment : Split
Alignment : Split accross interleaves
Interleave, duration : 1.00
Interleave, duration : 42
Interleave, duration : 42 ms (1.00 video frame)
Interleave, preload duration : 500
Interleave, preload duration : 500 ms
Writing library : LAME3.98.2
Writing library : LAME3.98.2[/spoiler]




http://www.torrented.org/public/phpbb3/images/trama.png



[color=blue]Trama del film Sucker Punch:[/color]

Sucker Punch racconta la storia di una ragazza di nome Babydoll che negli anni Cinquanta viene rinchiusa dal patrigno in un manicomio con l'intenzione di farla lobotomizzare di lì a cinque anni: per sfuggire a quel luogo orribile, Babydoll si rifugerà in un mondo di fantasia dal quale inizierà a pianificare la sua evasione. Il regista Zack Snyder ne ha parlato come di un "Alice nel paese delle meraviglie con i mitragliatori".


http://www.torrented.org/public/phpbb3/images/Screenshot.png


http://img560.imageshack.us/img560/1167/suckerpunchz.jpg



http://www.uptiki.com/images/b7717k9ytuyw8ehr8g.png


Related torrents

Torrent NameAddedSizeSeedLeechHealth
1 Year+ - in Movies702.16 MB00
1 Year+ - in Movies1.18 GB2181
1 Year+ - in Movies1013.62 MB12
1 Year+ - in Movies678.9 MB21
1 Year+ - in Movies639.01 MB10

Comments (1 comment)




gino900
» Voted Good Voted Good for this torrent for this torrent

Added 1 Year+
Buono lo consiglio!
Please login or create a FREE account to post comments

Latest Searches

| Big Tits Round Asses 43 kyra | Michael W Smith Worship | Texas Flip and Move S05E03 | DjDjNDjDjDjDjNDjDj 4 DjDjNDjDjDjDjDj 2015 | agente 007 contra el doctor no 3d sbs castellano hd mkv 1962 inaki | bears of kodiak | Data Abstraction Problem | Neyo r b | George Jones album s | MomsTeachSex Charlotte Cross Megan Sage Your Stepmom Is A Porn Star |