Quick Browse
Movies
TV shows
Music
Games
Applications
Anime
Other
Facebook
Advertising

Friends
Torrent Download
Movie4u
1337x.to
Torrent Downloads




Verified torrent Sucker Punch 2011 BRRip 720p H264-MXMG


    Seeders : 0      Leechers : 0
Hash :893349635A35F0A3C0C946BEF8F63AAA9EB4F3D0
Added :1 Year+ by MXMGVerified torrent uploader in Movies
Size :1.8 GB
Stream :WATCH ONLINE @ Movie4u


Sucker Punch 2011 BRRip 720p H264-MXMG
Free and Fast Download with Usenet 300GB+ free







Trackers List

Tracker NameLast CheckStatusSeedersLeechers




Torrent File Content (13 files)


Sucker Punch 2011 BRRip 720p H264-MXMG
     Sucker Punch.mp4 -
1.78 GB

     Sucker Punch(00h50m18s-00h51m18s)-sample.m4v -
13.27 MB

     Sucker Punch.mp4_snapshot_01.37.png -
514.84 KB

     Sucker Punch.mp4_snapshot_00.33.png -
371.39 KB

     Sucker Punch.mp4_snapshot_01.25.png -
238.34 KB

     Sucker Punch.mp4_snapshot_00.59.png -
160.6 KB

     Sucker Punch.mp4_snapshot_00.13.png -
151.8 KB

     Sucker Punch[subs]Vietnamese.srt -
116.38 KB

     Sucker Punch[subs]English.srt -
63.28 KB

     Sucker Punch[subs]Dannish.srt -
57.66 KB

     Sucker Punch[subs]Norwegian.srt -
55.16 KB

     Sucker Punch[subs]Dutch.srt -
51.23 KB

     Sucker Punch[subs]Arabic.srt -
48.96 KB



Description



http://img221.imageshack.us/img221/3391/1575386hio.jpg



[code]iMDB................................: http://www.imdb.com/title/tt0978764/

Plot :
A young girl is institutionalized by her abusive stepfather. Retreating to an alternative reality as a coping strategy, she envisions a plan which will help her escape from the mental facility.

Cast :

Emily Browning ... Baby Doll
Abbie Cornish ... Sweet Pea
Jena Malone ... Rocket
Vanessa Hudgens ... Blondie
Jamie Chung ... Amber
Carla Gugino ... Dr. Vera Gorski
Oscar Isaac ... Blue Jones
Jon Hamm ... High Roller / Doctor
Scott Glenn ... Wise Man



General
Format : MPEG-4
Format profile : Base Media
File size : 1.78 GiB
Duration : 1h 49mn
Overall bit rate : 2 325 Kbps

Video
Format/Info : Advanced Video Codec
Format profile : [email protected]
Format settings, CABAC : Yes
Format settings, ReFrames : 4 frames
Codec ID : avc1
Codec ID/Info : Advanced Video Coding
Duration : 1h 49mn
Bit rate mode : Variable
Bit rate : 2 000 Kbps
Maximum bit rate : 11.1 Mbps
Width : 1 280 pixels
Height : 528 pixels
Display aspect ratio : 2.40:1
Frame rate mode : Constant
Frame rate : 23.976 fps
Color space : YUV
Chroma subsampling : 4:2:0
Bit depth : 8 bits
Scan type : Progressive
Bits/(Pixel*Frame) : 0.123
Stream size : 1.53 GiB (86%)
Writing library : x264 core 115 r1995 c1e60b9

Audio
Format : AAC
Format/Info : Advanced Audio Codec
Format profile : LC
Codec ID : 40
Duration : 1h 49mn
Bit rate mode : Variable
Bit rate : 322 Kbps
Maximum bit rate : 429 Kbps
Channel(s) : 6 channels
Channel positions : Front: L C R, Side: L R, LFE
Sampling rate : 48.0 KHz
Compression mode : Lossy
Stream size : 253 MiB (14%)
Language : English





Subtitles : English\Arabic\Norwegian\Dutch\Dannish\Vietnamese
Source : 720p-FELONY
Sample : Included
[/code]


http://img171.imageshack.us/img171/8972/suckerpunchmp4snapshot0.png

http://img842.imageshack.us/img842/8972/suckerpunchmp4snapshot0.png

http://img833.imageshack.us/img833/8972/suckerpunchmp4snapshot0.png

http://img708.imageshack.us/img708/8972/suckerpunchmp4snapshot0.png

http://img135.imageshack.us/img135/8972/suckerpunchmp4snapshot0.png



[code]Trackers :
http://inferno.demonoid.me:3394/announce
http://fr33dom.h33t.com:3310/announce
http://nemesis.1337x.org/announce
http://exodus.1337x.org:80/announce
http://genesis.1337x.org:1337/announce
[/code]


[code]
Feel free to visit and select your range and suite of seedboxes and hosting plans.
Recomended by MXMG as these servers seed for your Dowloading @ 25MB/s and Higher...
http://www.chociz.com/

^COMPATiBLE MODES.......: XBOX-360/PSP/PS3/WDTV

FiND THE GENUiNE MXMG RELEASES @ TORRENTSTATE
HiGHEST QUALiTY iN COMFORTABLE SiZE ...
[/code]

Related torrents

Torrent NameAddedSizeSeedLeechHealth
Verified torrent
1 Year+ - in Movies899.74 MB112
1 Year+ - in Movies380.59 MB00
1 Year+ - in Movies909.29 MB120
1 Year+ - in Movies1.92 GB021
1 Year+ - in Movies2.44 GB113

Comments (1 comment)




littelbunny
» Downloaded this torrent Downloaded this torrent » Voted Good Voted Good for this torrent for this torrent

Added 1 Year+
nice
Please login or create a FREE account to post comments

Latest Searches

| Xfer Records LFOTool v1 6 5 OSX | Daniel Sea Salden | the s07e24 big bang theory | joiner mp3 avi | Person of Interest S01 HDTV XviD | shameless season 3 | rivalry vivthomas | Pacopacomama 060215426 HD | CONVERT UNIT | SANTANA HEVC |