Quick Browse
Movies
TV shows
Music
Games
Applications
Anime
Other

Donate and Support

Friends
Torrents.me
Torrent Download
Free Movies
1337x
RARBG
Torrent Downloads

Verified torrent Sukhaant [2009] Marathi Xvid 1 CD DVDRip MDG @Mastitorrents


    Seeders : 20      Leechers : 21
Hash :B74DF8590DA6F8E958A92C01092CD24F85DF298E
Added :1 Year+ by mastitorrentsVerified torrent uploader in Movies
Size :690.71 MB
Stream :Watch Full Movies Online @ Movie4u
Share :








Warning! Do not Download Torrents Without a VPN!
Your IP Address is .   And Location is
Your Internet Provider and Government can track your torrent Activity!  Hide your IP ADDRESS with a VPN!
We Strongly Recommend Using SpyOFF Torrent VPN to Anonymize your Torrenting. It's FREE For 15 Days!

Note :

Please Update (Trackers Info) Before Downloading Torrents to See Updated Seeders And Leechers for Batter Download Speed.

Trackers List

Tracker NameLast CheckStatusSeedersLeechers




Torrent File Content (1 file)


     Sukhaant [2009] - Xvid - 1 CD DVDRip - MDG Exclusive.avi -
690.71 MB



Description



[color=green][font=Georgia]Info -
Cast -
Atul Kulkarn
Jyoti Chandekar
Kavita Lad-Medhekar
Tushar Dalvi

Plot -
Sukhaant? deals with the controversial subject of mercy killing. It discusses the right of people with no hope of living to die honorably. Atul Kulkarni plays the protagonist, whose mother is afflicted with a grave ailment. She asks her son to give her the right to die with her own choice. Having made up her mind, the mother forces her son to seek court approval for her self-willed death.

Media Info -
General
Name : Sukhaant
Format : AVI
Format/Info : Audio Video Interleave
Format profile : OpenDML
File size : 691 MiB
Duration : 1h 35mn
Overall bit rate : 1 007 Kbps
Writing application : AVI-Mux GUI 1.17.8.3, Feb 16 201019:42:50

Video
ID : 0
Format : MPEG-4 Visual
Format profile : Advanced [email protected]
Format settings, BVOP : Yes
Format settings, QPel : No
Format settings, GMC : No warppoints
Format settings, Matrix : Default (H.263)
Codec ID : XVID
Codec ID/Hint : XviD
Duration : 1h 35mn
Bit rate : 940 Kbps
Width : 640 pixels
Height : 272 pixels
Display aspect ratio : 2.35:1
Frame rate : 23.976 fps
Color space : YUV
Chroma subsampling : 4:2:0
Bit depth : 8 bits
Scan type : Progressive
Bits/(Pixel*Frame) : 0.225
Stream size : 644 MiB (93%)
Writing library : XviD 1.2.1 (UTC 2008-12-04)

Audio
ID : 1
Format : MPEG Audio
Format version : Version 2
Format profile : Layer 3
Mode : Joint stereo
Mode extension : MS Stereo
Codec ID : 55
Codec ID/Hint : MP3
Duration : 1h 35mn
Bit rate mode : Constant
Bit rate : 64.0 Kbps
Channel(s) : 2 channels
Sampling rate : 24.0 KHz
Stream size : 43.9 MiB (6%)
Alignment : Aligned on interleaves
Interleave, duration : 796 ms (19.08 video frames)
Interleave, preload duration : 216 ms
[/font][/color]

http://i52.tinypic.com/2hz79sh.jpg

http://img818.imageshack.us/img818/728/214z62pjpg.png

http://img515.imageshack.us/img515/9189/ei6mjbjpg.png

http://img834.imageshack.us/img834/6061/vde9uvjpg.png


Related torrents

Torrent NameAddedSizeSeedLeechHealth
Verified torrent
1 Year+ - in Movies706.3 MB00
Verified torrent
1 Year+ - in Movies697.21 MB2418
Verified torrent
1 Year+ - in Movies688.36 MB3889
Verified torrent
1 Year+ - in Movies704.84 MB22
1 Year+ - in Movies701.96 MB19275

Comments (0 Comments)




Please login or create a FREE account to post comments

Latest Searches

| ladyboy nel | illustrator key | heineken kidnapping 2011 | high defination | honor me | 2016 justicia | facebook account hacker 8 1 | KARIZA | jurassic park bdrip dual | SexArt MetArt Erika Black |