Quick Browse
Movies
TV shows
Music
Games
Applications
Anime
Other
Facebook
Advertising

Friends
Torrent Download
Movie4u
1337x.to
Torrent Downloads




Verified torrent Super 8 2011 720p TS READNFO XViD - IMAGiNE


    Seeders : 1      Leechers : 1
Hash :42FC343FD68D8A3EB0D57B485560DF2D2707FC45
Added :1 Year+ by memory100Verified torrent uploader in Movies
Size :2.42 GB
Stream :WATCH ONLINE @ Movie4u


Super 8 2011 720p TS READNFO XViD - IMAGiNE
Free and Fast Download with Usenet 300GB+ free







Trackers List

Tracker NameLast CheckStatusSeedersLeechers




Torrent File Content (9 files)


Super 8 2011 720p TS READNFO XViD - IMAGiNE
     Budget seedboxs.txt -
44 bytes

     NW RG.nfo -
12.96 KB

     Super 8 2011 720p TS READNFO XViD - IMAGiNE SAMPLE.avi -
48.13 MB

     Super 8 2011 720p TS READNFO XViD - IMAGiNE.NFO -
5.02 KB

     Super 8 2011 720p TS READNFO XViD - IMAGiNE.avi -
2.37 GB

     Torrent downloaded from Demonoid.me.txt -
46 bytes

     dreamthe.net.txt -
91 bytes

     northernwarriors.net.txt -
135 bytes

     sceneunderground.org.txt -
77 bytes



Description



http://i.imgur.com/7LENc.jpg

[code]
Super 8 2011 720p TS READNFO XViD - IMAGiNE

Ripper ...........: IMAGiNE IMDB Rating.......: 8.1/10
Video Codec.......: XVID Release Date......: 13/06/11
Audio Codec.......: MP3 Theatre Date......: 10/06/11
Audio Bitrate.....: 128 Runtime.......: 1h 41mn
Subtitles.........: NIL Language..........: ENGLISH
Resolution......: 1280 x 544 IMDb URL..........: http://www.imdb.com/title/tt1650062/


DETAILS:

Video
ID : 0
Format : MPEG-4 Visual
Format profile : Advanced [email protected]
Format settings, BVOP : 2
Format settings, QPel : No
Format settings, GMC : No warppoints
Format settings, Matrix : Default (MPEG)
Muxing mode : Packed bitstream
Codec ID : XVID
Codec ID/Hint : XviD
Duration : 1h 41mn
Bit rate : 3 190 Kbps
Width : 1 280 pixels
Height : 544 pixels
Display aspect ratio : 2.35:1
Frame rate : 23.976 fps
Color space : YUV
Chroma subsampling : 4:2:0
Bit depth : 8 bits
Scan type : Progressive
Compression mode : Lossy
Bits/(Pixel*Frame) : 0.191
Stream size : 2.27 GiB (96%)
Writing library : XviD 61

Audio
ID : 1
Format : MPEG Audio
Format version : Version 2
Format profile : Layer 3
Mode : Joint stereo
Mode extension : MS Stereo
Codec ID : 55
Codec ID/Hint : MP3
Duration : 1h 41mn
Bit rate mode : Constant
Bit rate : 128 Kbps
Channel(s) : 2 channels
Sampling rate : 44.1 KHz
Compression mode : Lossy
Stream size : 93.3 MiB (4%)
Alignment : Split accross interleaves
Interleave, duration : 42 ms (1.00 video frame)
Writing library : LAME3.98r

Plot:
After witnessing a mysterious train crash, a group of friends in the summer of 1979 begin noticing strange happenings going around in their small town, and begin to investigate into the creepy phenomenon.

SOURCES:
VIDEO: .................. EP1C Thanx Mate
AUDIO: .................. Thanx Mate

NOTES:
IMAGiNE bringing you another release..........
Super 8 720P TS.........
Ok here we are with ANOTHER 720P TS.......
The source files were very nice, thanks to EP1C for supplying us with those............
So first off we made a script to crop rotate and resize,Adjusted the white levels, RGB and sharpened it up abit.......
Now there is a 55 second chunk missing from 48:49 to 50:44 nothing major but does seem to jump a scene so........
Audio is LiNE we filtered synced and remuxed to our encode
Enjoy Folks!
[/code]
Screens:
http://i.imgur.com/5zxYs.jpg

http://i.imgur.com/MnTXg.jpg

http://i.imgur.com/tEh9N.jpg

http://i.imgur.com/haPZ5.jpg

Related torrents

Torrent NameAddedSizeSeedLeechHealth
1 Year+ - in Movies2.42 GB00
1 Year+ - in Movies2.42 GB00
1 Year+ - in Movies704.55 MB03
Verified torrent
1 Year+ - in Movies1.28 GB133
Verified torrent
1 Year+ - in Movies1.27 GB126

Comments (0 Comments)




Please login or create a FREE account to post comments

Latest Searches

| american dad season 6 | home in the family | T I Iggy | Throated 16 12 06 Summer Day | Jason and I Bourne | The Voice US S11E23 HDTV x264 RBB | Jennifer Lopez Booty ft Iggy Azalea remix | exceeder UMEK | Anydvd 6 4 7 0 | dance e jay |