Quick Browse
Movies
TV shows
Music
Games
Applications
Anime
Other
Facebook
Advertising

Friends
Torrent Download
Movie4u
1337x.to
Torrent Downloads




Verified torrent Super 8 2011 CAM READNFO XViD - IMAGiNE


    Seeders : 1      Leechers : 0
Hash :6C3DC10AC79A41975EE49BA50F5D89448C7C6C24
Added :1 Year+ by memory100Verified torrent uploader in Movies
Size :1.39 GB
Stream :WATCH ONLINE @ Movie4u


Super 8 2011 CAM READNFO XViD - IMAGiNE
Free and Fast Download with Usenet 300GB+ free







Trackers List

Tracker NameLast CheckStatusSeedersLeechers




Torrent File Content (9 files)


Super 8 2011 CAM READNFO XViD - IMAGiNE
     Budget seedboxs.txt -
44 bytes

     NW RG.nfo -
12.96 KB

     Super 8 2011 CAM READNFO XViD - IMAGiNE.NFO -
5.09 KB

     Super 8 2011 CAM READNFO XViD - IMAGiNE.SAMPLE.avi -
15.21 MB

     Super 8 2011 CAM READNFO XViD - IMAGiNE.avi -
1.38 GB

     Torrent downloaded from Demonoid.me.txt -
46 bytes

     dreamthe.net.txt -
91 bytes

     northernwarriors.net.txt -
135 bytes

     sceneunderground.org.txt -
77 bytes



Description



http://i.imgur.com/XkR4b.jpg

[code]
Super 8 2011 CAM READNFO XViD - IMAGiNE

Ripper ...........: IMAGiNE IMDB Rating.......:

0.0/10
Video Codec.......: XVID Release Date......:

10/06/11
Audio Codec.......: MP3 Theatre Date......:

10/06/11
Audio Bitrate.....: 128 Runtime.......: 1h 43mn
Subtitles.........: NIL Language..........:

ENGLISH
Resolution......: 720 x 480 IMDb URL..........:

http://www.imdb.com/title/tt1650062/


DETAILS:

Video
ID : 0
Format : MPEG-4 Visual
Format profile : Advanced [email protected]
Format settings, BVOP : Yes
Format settings, QPel : No
Format settings, GMC : No warppoints
Format settings, Matrix : Default (MPEG)
Muxing mode : Packed bitstream
Codec ID : XVID
Codec ID/Hint : XviD
Duration : 1h 43mn
Bit rate : 1 764 Kbps
Width : 720 pixels
Height : 480 pixels
Display aspect ratio : 3:2
Frame rate : 25.000 fps
Standard : NTSC
Color space : YUV
Chroma subsampling : 4:2:0
Bit depth : 8 bits
Scan type : Progressive
Compression mode : Lossy
Bits/(Pixel*Frame) : 0.204
Stream size : 1.28 GiB (93%)
Writing library : XviD 61

Audio
ID : 1
Format : MPEG Audio
Format version : Version 1
Format profile : Layer 3
Mode : Joint stereo
Mode extension : MS Stereo
Codec ID : 55
Codec ID/Hint : MP3
Duration : 1h 43mn
Bit rate mode : Constant
Bit rate : 128 Kbps
Channel(s) : 2 channels
Sampling rate : 44.1 KHz
Compression mode : Lossy
Stream size : 94.8 MiB (7%)
Alignment : Split accross interleaves
Interleave, duration : 40 ms (1.00 video frame)
Writing library : LAME3.98r
Encoding settings : -m j -V 4 -q 2 -lowpass 17 -b 128

Plot:
After witnessing a mysterious train crash, a group of friends in the summer of 1979 begin

noticing strange happenings going around in their small town, and begin to investigate

into the creepy phenomenon.

SOURCES:
Thanx Mate

NOTES:
IMAGiNE bringing you another release..........
Super 8 CAM...........
Ok here we are with our first go at Super 8.....
Source had its problems, moves alot over cropped ect....
So rather than crop it to hell even further
we opted to leave it as is
to save as much picture as possible.....
We made a script to sharpen a bit and adjusted the colors
Audio was then converted from pcm to mp3
then remuxed to our encode
Not the best cam, certainly not for everyone,
but will do till something better comes up....
Anyhow,
Enjoy Folks!
[/code]
Screens:
http://i.imgur.com/74Wxo.jpg

http://i.imgur.com/6WgBH.jpg

http://i.imgur.com/1Z3Jp.jpg

http://i.imgur.com/jcuIm.jpg

http://i.imgur.com/wRwN2.jpg

Related torrents

Torrent NameAddedSizeSeedLeechHealth
1 Year+ - in Movies1.36 GB01
1 Year+ - in Movies1.36 GB01
1 Year+ - in Movies1.39 GB112
1 Year+ - in Movies1022.37 MB00
1 Year+ - in Movies1.4 GB136

Comments (0 Comments)




Please login or create a FREE account to post comments

Latest Searches

| how to away with murder S03E10 | Blacked Tali Dova | Fuck The French Jules Jordan Video 2016 Split Scenes | mommy s got tits | Michael Jackson | Busters A Parody 720p WEBRip MP4 VSEX | HotAndMean Sharing the Siblings Part 2 | Get the f out | the vampire diaries s08e06 dimension | houdini chess 6 |