Quick Browse
Movies
TV shows
Music
Games
Applications
Anime
Other
Facebook
Advertising

Friends
Torrent Download
Movie4u
1337x.to
Torrent Downloads




Verified torrent Super 8 2011 CAM XViD-EP1C


    Seeders : 0      Leechers : 0
Hash :7EA446BE0EB9CFD5BAA500983E74F220C381D264
Added :1 Year+ by memory100Verified torrent uploader in Movies
Size :1.39 GB
Stream :WATCH ONLINE @ Movie4u


Super 8 2011 CAM XViD-EP1C
Free and Fast Download with Usenet 300GB+ free







Trackers List

Tracker NameLast CheckStatusSeedersLeechers




Torrent File Content (10 files)


Super.8.2011.CAM.XViD-EP1C
     Budget seedboxs.txt -
44 bytes

     NW RG.nfo -
12.96 KB

     Super.8.2011.CAM.XViD-EP1C.avi -
1.36 GB

     Super.8.2011.CAM.XViD-EP1C.nfo -
3.7 KB

     Super.8.Sample1-EP1C.avi -
17.28 MB

     Super.8.Sample2-EP1C.avi -
15.93 MB

     Torrent downloaded from Demonoid.me.txt -
46 bytes

     dreamthe.net.txt -
91 bytes

     northernwarriors.net.txt -
135 bytes

     sceneunderground.org.txt -
77 bytes



Description



http://noob.hu/2011/06/13/super-8-movie-poster.jpg

[code]
::File:: Super.8.2011.CAM.XViD-EP1C

::Source:::::::: Bambi - EP1C
::Language:::::: English
::IMDB:::::::::: http://www.imdb.com/title/tt1650062/

After witnessing a mysterious train crash, a group of friends in the summer of 1979 begin noticing strange happenings going around in their small town, and begin to investigate into the creepy phenomenon.

::Specs:::::::::
Format : AVI
Format/Info : Audio Video Interleave
File size : 1.36 GiB
Duration : 1h 40mn
Overall bit rate : 1 927 Kbps
Writing application : VirtualDubMod 1.5.10.2 (build 2540/release)
Writing library : VirtualDubMod build 2540/release

Video
ID : 0
Format : MPEG-4 Visual
Format profile : Advanced [email protected]
Format settings, BVOP : Yes
Format settings, QPel : No
Format settings, GMC : No warppoints
Format settings, Matrix : Default (MPEG)
Muxing mode : Packed bitstream
Codec ID : XVID
Codec ID/Hint : XviD
Duration : 1h 40mn
Bit rate : 1 789 Kbps
Width : 720 pixels
Height : 288 pixels
Display aspect ratio : 2.500
Frame rate : 24.000 fps
Color space : YUV
Chroma subsampling : 4:2:0
Bit depth : 8 bits
Scan type : Progressive
Bits/(Pixel*Frame) : 0.360
Stream size : 1.26 GiB (93%)
Writing library : XviD 58

Audio
ID : 1
Format : MPEG Audio
Format version : Version 1
Format profile : Layer 3
Mode : Joint stereo
Mode extension : MS Stereo
Codec ID : 55
Codec ID/Hint : MP3
Duration : 1h 40mn
Bit rate mode : Constant
Bit rate : 128 Kbps
Channel(s) : 2 channels
Sampling rate : 44.1 KHz
Stream size : 92.4 MiB (7%)
Alignment : Split accross interleaves
Interleave, duration : 42 ms (1.00 video frame)
Interleave, preload duration : 500 ms

::NOTES:::::::::
Presenting Super 8 CAM. Complete with a cammer with the munchies..
Enjoy. //EP1C
[/code]
Screens:
http://noob.hu/2011/06/11/vlcsnap-2011-06-11-11h30m34s31.png

http://noob.hu/2011/06/11/vlcsnap-2011-06-11-11h18m15s45.png

http://noob.hu/2011/06/11/vlcsnap-2011-06-11-11h18m52s179.png

http://noob.hu/2011/06/11/vlcsnap-2011-06-11-11h22m14s103.png

Related torrents

Torrent NameAddedSizeSeedLeechHealth
1 Year+ - in Movies1.39 GB00
1 Year+ - in Movies1.39 GB00
1 Year+ - in Movies797.92 MB14
1 Year+ - in Movies3.64 GB126
1 Year+ - in Movies1.16 GB00

Comments (0 Comments)




Please login or create a FREE account to post comments

Latest Searches

| wolf and leopards | when it goes down | live forever swift | mirzya 2016 720p desiscr rip x264 ac3 team dus jnmjy | 12 sai chicchana mune | marta croft publicpickups | marta croft ever | Kid Ink Body Language ft Usher | Naruto Shippuuden 485 | 7 roshan |