Quick Browse
Movies
TV shows
Music
Games
Applications
Anime
Other
Facebook
Advertising

Friends
Torrent Download
Movie4u
1337x.to
Torrent Downloads




Verified torrent Super K ( 2011) Hindi DvD Rip x264 AVC Esub Dual Audio [email protected]


    Seeders : 1      Leechers : 6

Trackers List

Tracker NameLast CheckStatusSeedersLeechers




Torrent File Content (5 files)


Super K ( 2011) DvD Rip x264 AVC Esub Dual Audio 6CH(www.mastitorrents.com)
     www.mastitorrents.com.txt -
321 bytes

     Super K ( 2011) DvD Rip x264 AVC Esub Dual Audio 6CH(www.mastitorrents.com).sub -
4.19 MB

     Super K ( 2011) DvD Rip x264 AVC Esub Dual Audio 6CH(www.mastitorrents.com).mkv -
1.36 GB

     Catch Us On Facebook.txt -
133 bytes

     Super K ( 2011) DvD Rip x264 AVC Esub Dual Audio 6CH(www.mastitorrents.com).idx -
55.06 KB



Description



[color=red][font=Georgia]mastitorrents.com

http://mastitorrents.com/forums/index.php

Ripper : Rahul
Source : DDR
Complete name : Super k ( 2011)
Format : Matroska
File size : 1.36 GiB
Duration : 1h 31mn
Overall bit rate : 2 134 Kbps
Encoded date : UTC 2011-12-26 19:30:09
Writing application : mkvmerge v4.3.0 ('Escape from the
Video
ID : 1
Format : AVC
Format/Info : Advanced Video Codec
Format profile : [email protected]
Format settings, CABAC : Yes
Format settings, ReFrames : 3 frames
Muxing mode : Header stripping
Codec ID : V_MPEG4/ISO/AVC
Duration : 1h 31mn
Bit rate mode : Variable
Bit rate : 1 237 Kbps
Maximum bit rate : 15.0 Mbps
Width : 640 pixels
Height : 288 pixels
Display aspect ratio : 2.222
Frame rate : 23.976 fps
Color space : YUV
Chroma subsampling : 4:2:0
Bit depth : 8 bits
Scan type : Progressive
Bits/(Pixel*Frame) : 0.280
Stream size : 783 MiB (56%)
Writing library : x264 core 116 r2074 2641b9e
Audio #1
ID : 2
Format : AC-3
Format/Info : Audio Coding 3
Mode extension : CM (complete main)
Muxing mode : Header stripping
Codec ID : A_AC3
Duration : 1h 31mn
Bit rate mode : Constant
Bit rate : 448 Kbps
Channel(s) : 6 channels
Channel positions : Front: L C R, Side: L R, LFE
Sampling rate : 48.0 KHz
Bit depth : 16 bits
Compression mode : Lossy
Stream size : 293 MiB (21%)
Langoage : English
Audio #2
ID : 3
Format : AC-3
Format/Info : Audio Coding 3
Mode extension : CM (complete main)
Muxing mode : Header stripping
Codec ID : A_AC3
Duration : 1h 31mn
Bit rate mode : Constant
Bit rate : 448 Kbps
Channel(s) : 6 channels
Channel positions : Front: L C R, Side: L R, LFE
Sampling rate : 48.0 KHz
Bit depth : 16 bits
Compression mode : Lossy
Stream size : 293 MiB (21%)
Langoage : Hindi
[/font][/color]

http://picturestack.com/148/950/8hs126mxg.png

http://picturestack.com/148/950/myg227a1d.png

http://picturestack.com/148/950/ek3322Jxp.png

http://picturestack.com/148/950/xvW418J2S.png

http://picturestack.com/148/950/YZV5188lu.png

http://picturestack.com/148/950/DHd616gkF.png

http://picturestack.com/148/950/CFr714KPS.png

http://picturestack.com/148/950/SsT8165v4w.png

http://picturestack.com/148/950/y6j9129FEt.png

http://picturestack.com/148/950/usn10101jcg.png

Related torrents

Torrent NameAddedSizeSeedLeechHealth
1 Year+ - in Movies1.46 GB012
Verified torrent
1 Year+ - in Movies1.45 GB00
Verified torrent
1 Year+ - in Movies694.86 MB04
1 Year+ - in Other1.28 GB11
1 Year+ - in Movies4.37 GB02

Comments (0 Comments)




Please login or create a FREE account to post comments

Latest Searches

| A gentleman in moscow | raped wife husband | major bad | Planet Earth II S01E04 WEB x264 state | intruder 2016 dvdrip | QUEEN GREATEST HITS II JAPAN | the fast and the furious 2001 brrip xvid mp3 rarbg | coke boys 3 n w c | Take Down 2016 720p BluRay x264 AAC ETRG | The Hunger Games Mockingjay Part 2 4K |