Quick Browse
Movies
TV shows
Music
Games
Applications
Anime
Other

Donate and Support

Friends
Torrents.me
Torrent Download
Free Movies
1337x
RARBG
Torrent Downloads

Superman II The Richard Donner Cut 2006 720p BDRip SCH-T


    Seeders : 2      Leechers : 1
Hash :88F0C06CA860199783DBAC61902182E72C1050F4
Added :1 Year+ by trance1Verified torrent uploader in Movies
Size :2.59 GB
Stream :Watch Full Movies Online @ Movie4u
Share :








Warning! Do not Download Torrents Without a VPN!
Your IP Address is .   And Location is
Your Internet Provider and Government can track your torrent Activity!  Hide your IP ADDRESS with a VPN!
We Strongly Recommend Using SpyOFF Torrent VPN to Anonymize your Torrenting. It's FREE For 15 Days!

Note :

Please Update (Trackers Info) Before Downloading Torrents to See Updated Seeders And Leechers for Batter Download Speed.

Trackers List

Tracker NameLast CheckStatusSeedersLeechers




Torrent File Content (9 files)


Superman II The Richard Donner Cut 2006 720p BDRip SCH-T
    Sample
          Superman II - The Richard Donner Cut - Sample.mp4 -
91.26 MB

          Superman II - The Richard Donner Cut.png -
1.04 MB

          Superman II - The Richard Donner Cut[13-04-13].PNG -
503.58 KB

          Superman II - The Richard Donner Cut[12-47-46].PNG -
366.11 KB

          Superman II - The Richard Donner Cut[12-46-05].PNG -
330.33 KB

          Superman II - The Richard Donner Cut[12-42-24].PNG -
304.32 KB

    Subs
          Superman II - The Richard Donner Cut - Spanish.srt -
83.24 KB

          Superman II - The Richard Donner Cut - English.srt -
83.01 KB

     Superman II The Richard Donner Cut 2006 720p BDRip SCH-T.mp4 -
2.5 GB



Description



Superman II The Richard Donner Cut 2006 720p BDRip SCH-TSuperman II The Richard Donner Cut 2006 720p BDRip
SCH-T.mp4':
Duration: 01:55:52.57, start: 0.000000, bitrate: 3087 kb/s
Stream #0.0(und): Video: h264, yuv420p, 1280x528 [PAR 1:1 DAR 80:33], 23.98 tbr, 23.98 tbn, 47.95 tbc
Stream #0.1(und): Audio: aac, 48000 Hz, 5.1, s16
[19:47:36] scan: decoding previews for title 1
Scanning title 1...
Scanning title 1...
Scanning title 1...
[19:47:36] scan: 10 previews, 1280x528, 23.976 fps, autocrop = 0/0/0/0, aspect 2.42:1, PAR 1:1
[19:47:36] scan: title (0) job->width:1280, job->height:528
[19:47:36] libhb: scan thread found 1 valid title(s)
+ title 1:
+ vts 0, ttn 0, cells 0->0 (0 blocks)
+ angle(s) 0
+ duration: 01:55:52
+ size: 1280x528, pixel aspect: 1/1, display aspect: 2.42, 23.976 fps
+ autocrop: 0/0/0/0
+ chapters:
+ 1: cells 0->0, 0 blocks, duration 01:55:52
+ audio tracks:
+ 1, Unknown (AAC) (iso639-2: und)
+ subtitle tracks:
[19:47:37] 1 job(s) to process
[19:47:37] starting job
[19:47:37] work: sanitizing track 0 mixdown Dolby Pro Logic II to Stereo
[19:47:37] job configuration:
[19:47:37] * source
[19:47:37] Superman II The Richard Donner Cut 2006 720p BDRip SCH-TSuperman II The Richard Donner Cut 2006 720p BDRip SCH-T.mp4
[19:47:37] + title 1, chapter(s) 1 to 1
[19:47:37] + container: mov,mp4,m4a,3gp,3g2,mj2
[19:47:37] + data rate: 3087 kbps
[19:47:37] * destination
[19:47:37] + supermAN
[19:47:37] + container: MPEG-4 (.mp4 and .m4v)
[19:47:37] * video track
[19:47:37] + decoder: h264
[19:47:37] + frame rate: same as source (around 23.976 fps)
[19:47:37] + strict anamorphic
[19:47:37] + modulus: 0
[19:47:37] + storage dimensions: 1280 * 528 -> 1280 * 528, crop 0/0/0/0
[19:47:37] + pixel aspect ratio: 1 / 1
[19:47:37] + display dimensions: 1280 * 528
[19:47:37] + encoder: x264
[19:47:37] + options: ref=2:bframes=2:subq=6:mixed-refs=0:weightb=0:8x8dct=0:trellis=0
[19:47:37] + quality: 20.00 (RF)
[19:47:37] * audio track 0
[19:47:37] + decoder: Unknown (AAC) (track 1, id 1)
[19:47:37] + mixdown: Stereo
[19:47:37] + encoder: faac
[19:47:37] + bitrate: 160 kbps, samplerate: 48000 Hz
libdvdnav: Using dvdnav version 4.1.3
[19:47:37] encx264: keyint-min: 24, keyint-max: 240
[19:47:37] encx264: encoding with stored aspect 1/1
[19:47:37] encx264: Encoding at constant RF 20.000000
x264 [info]: using SAR=1/1

Related torrents

Torrent NameAddedSizeSeedLeechHealth
1 Year+ - in Movies2.7 GB03
1 Year+ - in Movies3.24 GB20
1 Year+ - in Movies2.5 GB00
1 Year+ - in Movies1.43 GB14
1 Year+ - in Movies6.14 GB00

Comments (0 Comments)




Please login or create a FREE account to post comments

Latest Searches

| A Serbian Film 2010 UNCUT 720p BRRip 950MB 18 MkvCage | Penny De Los Santos Food Photography | A Serbian Film 2010 UNCUT 720p BRRip 950MB 18 MkvCage | fb 19 9 | steppenwolf 16 | Zoliboy Emily Thorne Wreckless in the Rec room | my name sub ita | oedipal | Poldark 2015 S02E02 720p HDTV x264 FoV ettv | packed to the rafters s03e09 |