Quick Browse
Movies
TV shows
Music
Games
Applications
Anime
Other
Facebook
Advertising

Friends
Torrent Download
Movie4u
1337x.to
Torrent Downloads




Verified torrent Supernatural S06E01-02 HDTV XviD Eng_Sub Ita-[IDN_CREW]


    Seeders : 1      Leechers : 0
Hash :CC258B013D133C1ADF872CF159E773C01CFE3FE0
Added :1 Year+ by manny02Verified torrent uploader in TV shows
Size :700.58 MB
Stream :WATCH ONLINE @ Movie4u


Supernatural S06E01-02 HDTV XviD Eng_Sub Ita-[IDN_CREW]
Free and Fast Download with Usenet 300GB+ free







Trackers List

Tracker NameLast CheckStatusSeedersLeechers




Torrent File Content (3 files)


Supernatural.S06E01-02.HDTV.XviD.Eng_Sub.Ita-[IDN_CREW]
     IDN_CREW Leggimi.txt -
294 bytes

     Supernatural.S06E01.Exile.on.Main.Street.HDTV.XviD.Eng_Sub.Ita-[IDN_CREW].avi -
349.79 MB

     Supernatural.S06E02.Two.and.a.Half.Men.HDTV.XviD.Eng_Sub.Ita-[IDN_CREW].avi -
350.79 MB



Description



http://img109.imageshack.us/img109/1687/supernaturalstagione6.jpg

[color=blue]Supernatural Stagione 6
HDTV XviD Eng + Sub ITA[/color]

http://img514.imageshack.us/img514/1502/inforelease.png


[color=blue]
Titolo: Supernatural
Anno: 2010
Nazionalità: United States
Genere: horror, thriller, fantasy
Lingua: Inglese
Stagione: 6
Episodi: 22
Durata Episodio: 45 min ca (episodio)
Ideatore: Eric Kripke
Produzione: Kripke Enterprises, Wonderland Sound and Vision e Warner Bros. Television
Distribuzione (USA): The CW trasmessa dal 24 settembre 2010 al 20 maggio 2011
Distribuzione (Italia): Ancora inedita
Fonti: http://it.wikipedia.org/wiki/Supernatural_%28serie_televisiva%29#Sesta_stagione
[/color]


http://img685.imageshack.us/img685/5835/casta.png


http://img850.imageshack.us/img850/1139/supercast.jpg


Jared Padalecki: Sam Winchester
Jensen Ackles: Dean Winchester
Jim Beaver: Bobby Singer
Katie Cassidy: Ruby
Lauren Cohan: Bela Talbot
Misha Collins: Castiel
Mark Sheppard: Crowley
Mitch Pileggi: Samuel Campbell

http://img153.imageshack.us/img153/7608/tramao.png


Nella sesta stagione di Supernatural, vedremo nuovamente i due fratelloni ancora assieme, e ricomincia la loro lotta contro le forze oscure, non senza colpi di scena, di cui non parlo, anche perchè nemmeno io ho visto ancora gli episodi e per non svelare nulla, altrimenti che gusto c'è. Buona Visione!!!


http://img864.imageshack.us/img864/7976/episodi.png


[color=red]1. Exile on Main Street
2. Two and a Half Men[/color]
3. The Third Man
4. Weekend at Bobby's
5. Live Free or Twi-Hard
6. You can't Handle the Truth
7. Family Matters
8. AllDogs Go to Heaven
9. Clap Your Hands if You Believe
10. Caged Heat
11. Appointment in Samarra
12. Like a Virgin
13. Unforgiven
14. Mannequin 3: The Reckoning
15. The French Mistake
16. ...And Then There Were None
17. My Hearth Will Go On
18. Frontierland
19. Mommy Dearest
20. The Man Who Would Be King
21. Let It Bleed
22. The Man Who Knew Too Much[/font]
[/glow][/color][/size]


http://img20.imageshack.us/img20/4974/screenshotsph.png


http://img818.imageshack.us/img818/8986/screensuper6.jpg



http://img529.imageshack.us/img529/7286/datifile.png


Sottotitoli impressi a video

Programma usato: AviRecomp

General
Complete name : Supernatural.S06E01.Exile.on.Main.Street.HDTV.XviD.Eng_Sub.Ita-[IDN_CREW].avi
Format : AVI
Format/Info : Audio Video Interleave
File size : 350 MiB
Duration : 41mn 48s
Overall bit rate : 1 170 Kbps

Video
Format : MPEG-4 Visual
Format profile : Streaming [email protected]
Format settings, BVOP : Yes
Format settings, QPel : No
Format settings, GMC : No warppoints
Format settings, Matrix : Default
Codec ID : XVID
Codec ID/Hint : XviD
Duration : 41mn 48s
Bit rate : 1 028 Kbps
Width : 624 pixels
Height : 352 pixels
Display aspect ratio : 16/9
Frame rate : 23.976 fps
Resolution : 24 bits
Colorimetry : 4:2:0
Scan type : Progressive
Bits/(Pixel*Frame) : 0.195
Stream size : 307 MiB (88%)
Writing library : XviD 62

Audio
Format : MPEG Audio
Format version : Version 1
Format profile : Layer 3
Codec ID : 55
Codec ID/Hint : MP3
Duration : 41mn 48s
Bit rate mode : Variable
Bit rate : 129 Kbps
Channel(s) : 2 channels
Sampling rate : 48.0 KHz
Resolution : 16 bits
Stream size : 38.5 MiB (11%)
Alignment : Aligned on interleaves
Interleave, duration : 24 ms (0.58 video frame)
Interleave, preload duration : 506 ms


Ringraziamenti: Ad Itasa per i sottotitoli, e ai realizzatori del video

Related torrents

Torrent NameAddedSizeSeedLeechHealth
1 Year+ - in TV shows757.76 MB21
1 Year+ - in TV shows425.68 MB02
1 Year+ - in TV shows340 MB00
1 Year+ - in TV shows340 MB10
1 Year+ - in TV shows338.99 MB10
1 Year+ - in TV shows358.09 MB10

Comments (0 Comments)




Please login or create a FREE account to post comments

Latest Searches

| me and you against | Bruno Mars On Me | j pride know | legiao pt br | Trompe LOeil westworld | cAPTAin AMERICA CIVIL | the calling s | Assassin s Creed 2016 Movie Bluray | The Accountant 2016 KOR HDRip 1080p H264 AAC STY PRiME | video unfaithful |