Quick Browse
Movies
TV shows
Music
Games
Applications
Anime
Other
Facebook
Advertising

Friends
Torrent Download
Movie4u
1337x.to
Torrent Downloads




Verified torrent Supernatural S06E03-04 HDTV XviD Eng_Sub Ita-[IDN_CREW]


    Seeders : 1      Leechers : 2
Hash :CC37509A58AA05B7C99A010023376B7E06521EB1
Added :1 Year+ by manny02Verified torrent uploader in TV shows
Size :699.61 MB
Stream :WATCH ONLINE @ Movie4u


Supernatural S06E03-04 HDTV XviD Eng_Sub Ita-[IDN_CREW]
Free and Fast Download with Usenet 300GB+ free







Trackers List

Tracker NameLast CheckStatusSeedersLeechers




Torrent File Content (3 files)


Supernatural.S06E03-04.HDTV.XviD.Eng_Sub.Ita-[IDN_CREW]
     IDN_CREW Leggimi.txt -
294 bytes

     Supernatural.S06E03.The.Third.Man.HDTV.XviD.Eng_Sub.Ita-[IDN_CREW].avi -
349.8 MB

     Supernatural.S06E04.Weekend.at.Bobby's.HDTV.XviD.Eng_Sub.Ita-[IDN_CREW].avi -
349.81 MB



Description



http://img109.imageshack.us/img109/1687/supernaturalstagione6.jpg

[color=blue]Supernatural Stagione 6
HDTV XviD Eng + Sub ITA[/color]

http://img514.imageshack.us/img514/1502/inforelease.png


[color=blue]
Titolo: Supernatural
Anno: 2010
Nazionalità: United States
Genere: horror, thriller, fantasy
Lingua: Inglese
Stagione: 6
Episodi: 22
Durata Episodio: 45 min ca (episodio)
Ideatore: Eric Kripke
Produzione: Kripke Enterprises, Wonderland Sound and Vision e Warner Bros. Television
Distribuzione (USA): The CW trasmessa dal 24 settembre 2010 al 20 maggio 2011
Distribuzione (Italia): Ancora inedita
Fonti: http://it.wikipedia.org/wiki/Supernatural_%28serie_televisiva%29#Sesta_stagione
[/color]


http://img685.imageshack.us/img685/5835/casta.png


http://img850.imageshack.us/img850/1139/supercast.jpg


Jared Padalecki: Sam Winchester
Jensen Ackles: Dean Winchester
Jim Beaver: Bobby Singer
Katie Cassidy: Ruby
Lauren Cohan: Bela Talbot
Misha Collins: Castiel
Mark Sheppard: Crowley
Mitch Pileggi: Samuel Campbell

http://img153.imageshack.us/img153/7608/tramao.png


Nella sesta stagione di Supernatural, vedremo nuovamente i due fratelloni ancora assieme, e ricomincia la loro lotta contro le forze oscure, non senza colpi di scena, di cui non parlo, anche perchè nemmeno io ho visto ancora gli episodi e per non svelare nulla, altrimenti che gusto c'è. Buona Visione!!!


http://img864.imageshack.us/img864/7976/episodi.png


[color=red]1. Exile on Main Street
2. Two and a Half Men
3. The Third Man
4. Weekend at Bobby's [/color]
5. Live Free or Twi-Hard
6. You can't Handle the Truth
7. Family Matters
8. AllDogs Go to Heaven
9. Clap Your Hands if You Believe
10. Caged Heat
11. Appointment in Samarra
12. Like a Virgin
13. Unforgiven
14. Mannequin 3: The Reckoning
15. The French Mistake
16. ...And Then There Were None
17. My Hearth Will Go On
18. Frontierland
19. Mommy Dearest
20. The Man Who Would Be King
21. Let It Bleed
22. The Man Who Knew Too Much[/font]
[/glow][/color][/size]


http://img20.imageshack.us/img20/4974/screenshotsph.png


http://img818.imageshack.us/img818/8986/screensuper6.jpg



http://img529.imageshack.us/img529/7286/datifile.png


Sottotitoli impressi a video

Programma usato: AviRecomp

General

General
Complete name : Supernatural.S06E03.The.Third.Man.HDTV.XviD.Eng_Sub.Ita-[IDN_CREW].avi
Format : AVI
Format/Info : Audio Video Interleave
File size : 350 MiB
Duration : 40mn 52s
Overall bit rate : 1 197 Kbps

Video
Format : MPEG-4 Visual
Format profile : Streaming [email protected]
Format settings, BVOP : Yes
Format settings, QPel : No
Format settings, GMC : No warppoints
Format settings, Matrix : Default
Codec ID : XVID
Codec ID/Hint : XviD
Duration : 40mn 52s
Bit rate : 1 061 Kbps
Width : 624 pixels
Height : 352 pixels
Display aspect ratio : 16/9
Frame rate : 23.976 fps
Resolution : 24 bits
Colorimetry : 4:2:0
Scan type : Progressive
Bits/(Pixel*Frame) : 0.202
Stream size : 310 MiB (89%)
Writing library : XviD 62

Audio
Format : MPEG Audio
Format version : Version 1
Format profile : Layer 3
Codec ID : 55
Codec ID/Hint : MP3
Duration : 40mn 49s
Bit rate mode : Variable
Bit rate : 123 Kbps
Minimum bit rate : 128 Kbps
Channel(s) : 2 channels
Sampling rate : 48.0 KHz
Resolution : 16 bits
Stream size : 35.9 MiB (10%)
Alignment : Aligned on interleaves
Interleave, duration : 24 ms (0.58 video frame)
Interleave, preload duration : 472 ms
Writing library : LAME3.98r
Encoding settings : ABR




Ringraziamenti: Ad Itasa per i sottotitoli, e ai realizzatori del video

Related torrents

Torrent NameAddedSizeSeedLeechHealth
1 Year+ - in TV shows723.11 MB21
1 Year+ - in TV shows425.68 MB02
1 Year+ - in TV shows340 MB00
1 Year+ - in TV shows340 MB10
1 Year+ - in TV shows338.99 MB10
1 Year+ - in TV shows358.09 MB10

Comments (0 Comments)




Please login or create a FREE account to post comments

Latest Searches

| l Jojo Kiss Teen Jojos Anal | notorious dead | Jasmine Jae cock | Kendrick Lamar 100 | Advanced SystemCare Ultimate 7 PRO Serial August 2014 | too much drake feat sampha | the brothers session | 1997 hit | good boy gdtaeyang | lord of the rings hobbit an unexpected journey |