Quick Browse
TV shows

Latest Articles

Torrent Download
Free Movies
Torrent Downloads

Verified torrent Supernatural S06E03-04 HDTV XviD Eng_Sub Ita-[IDN_CREW]

    Seeders : 0      Leechers : 0

Hash :CC37509A58AA05B7C99A010023376B7E06521EB1
Added :1 Year+ by manny02Verified torrent uploader in TV shows
Size :699.61 MB
Stream :Watch Online Full Movie @ Movie4u
Share :

Warning! Do not Download Torrents Without a VPN!
Your IP Address is .   And Location is
Your Internet Provider and Government can track your torrent Activity!  Hide your IP ADDRESS with a VPN!
We Strongly Recommend Using CyberGhost VPN to Anonymize your Torrenting.

Note :

Please Update (Trackers Info) Before Downloading Torrents to See Updated Seeders And Leechers for Batter Download Speed.

Trackers List

Tracker NameLast CheckStatusSeedersLeechers
udp://tracker.coppersurfer.tk:80Last Monthsuccess00
http://fr33dom.h33t.com:3310/announceLast Monthsuccess00
udp://10.rarbg.me:80/announceLast Monthsuccess00
http://tracker.nwps.ws:6969/announceLast Monthsuccess00
http://exodus.desync.com:6969/announceLast Monthsuccess00
http://tracker.thepiratebay.org/announceLast Monthsuccess00
udp://fr33domtracker.h33t.com:3310/announceLast Monthsuccess00
http://tracker.istole.it/announceLast Monthsuccess00
http://bigfoot1942.sektori.org:6969/announceLast Monthsuccess00
http://announce.torrentsmd.com:6969/announceLast Monthsuccess00
http://9.rarbg.com:2710/announceLast Monthsuccess00
udp://9.rarbg.com:2710/announceLast Monthsuccess00
udp://tracker.zond.org:80/announceLast Monthsuccess00
udp://tracker.ilibr.org:6969/announceLast Monthsuccess00
http://tracker.best-torrents.net:6969/announceLast Monthsuccess00
http://torrent-downloads.to:5869/announceLast Monthsuccess00
http://torrent.gresille.org/announceLast Monthsuccess00
http://torrent-tracker.ru/announce.phpLast Monthsuccess00
udp://tracker.btzoo.eu:80/announceLast Monthsuccess00
http://tracker.winglai.com/announceLast Monthsuccess00
http://tracker.windsormetalbattery.com/announceLast Monthsuccess00
http://nemesis.1337x.org/announceLast Monthsuccess00
http://tracker.ccc.de/announceLast Monthsuccess00
http://tracker.publicbt.com/announceLast Monthsuccess00
http://tracker.trackerfix.com/announceLast Monthsuccess00
http://genesis.1337x.org:1337/announceLast Monthsuccess00
udp://tracker.token.ro:80/announceLast Monthsuccess00
udp://tracker.ccc.de:80/announceLast Monthsuccess00
udp://open.demonii.com:1337/announceLast Monthsuccess00
udp://tracker.publicbt.com:80/announceLast Monthsuccess00
udp://tracker.openbittorrent.com:80/announceLast Monthsuccess00
udp://tracker.istole.it:80/announceLast Monthsuccess00
udp://ipv4.tracker.harry.lu:80/announceLast Monthsuccess00

Torrent File Content (3 files)

     IDN_CREW Leggimi.txt -
294 bytes

     Supernatural.S06E03.The.Third.Man.HDTV.XviD.Eng_Sub.Ita-[IDN_CREW].avi -
349.8 MB

     Supernatural.S06E04.Weekend.at.Bobby's.HDTV.XviD.Eng_Sub.Ita-[IDN_CREW].avi -
349.81 MB



[color=blue]Supernatural Stagione 6
HDTV XviD Eng + Sub ITA[/color]


Titolo: Supernatural
Anno: 2010
Nazionalità: United States
Genere: horror, thriller, fantasy
Lingua: Inglese
Stagione: 6
Episodi: 22
Durata Episodio: 45 min ca (episodio)
Ideatore: Eric Kripke
Produzione: Kripke Enterprises, Wonderland Sound and Vision e Warner Bros. Television
Distribuzione (USA): The CW trasmessa dal 24 settembre 2010 al 20 maggio 2011
Distribuzione (Italia): Ancora inedita
Fonti: http://it.wikipedia.org/wiki/Supernatural_%28serie_televisiva%29#Sesta_stagione



Jared Padalecki: Sam Winchester
Jensen Ackles: Dean Winchester
Jim Beaver: Bobby Singer
Katie Cassidy: Ruby
Lauren Cohan: Bela Talbot
Misha Collins: Castiel
Mark Sheppard: Crowley
Mitch Pileggi: Samuel Campbell


Nella sesta stagione di Supernatural, vedremo nuovamente i due fratelloni ancora assieme, e ricomincia la loro lotta contro le forze oscure, non senza colpi di scena, di cui non parlo, anche perchè nemmeno io ho visto ancora gli episodi e per non svelare nulla, altrimenti che gusto c'è. Buona Visione!!!


[color=red]1. Exile on Main Street
2. Two and a Half Men
3. The Third Man
4. Weekend at Bobby's [/color]
5. Live Free or Twi-Hard
6. You can't Handle the Truth
7. Family Matters
8. AllDogs Go to Heaven
9. Clap Your Hands if You Believe
10. Caged Heat
11. Appointment in Samarra
12. Like a Virgin
13. Unforgiven
14. Mannequin 3: The Reckoning
15. The French Mistake
16. ...And Then There Were None
17. My Hearth Will Go On
18. Frontierland
19. Mommy Dearest
20. The Man Who Would Be King
21. Let It Bleed
22. The Man Who Knew Too Much[/font]




Sottotitoli impressi a video

Programma usato: AviRecomp


Complete name : Supernatural.S06E03.The.Third.Man.HDTV.XviD.Eng_Sub.Ita-[IDN_CREW].avi
Format : AVI
Format/Info : Audio Video Interleave
File size : 350 MiB
Duration : 40mn 52s
Overall bit rate : 1 197 Kbps

Format : MPEG-4 Visual
Format profile : Streaming [email protected]
Format settings, BVOP : Yes
Format settings, QPel : No
Format settings, GMC : No warppoints
Format settings, Matrix : Default
Codec ID : XVID
Codec ID/Hint : XviD
Duration : 40mn 52s
Bit rate : 1 061 Kbps
Width : 624 pixels
Height : 352 pixels
Display aspect ratio : 16/9
Frame rate : 23.976 fps
Resolution : 24 bits
Colorimetry : 4:2:0
Scan type : Progressive
Bits/(Pixel*Frame) : 0.202
Stream size : 310 MiB (89%)
Writing library : XviD 62

Format : MPEG Audio
Format version : Version 1
Format profile : Layer 3
Codec ID : 55
Codec ID/Hint : MP3
Duration : 40mn 49s
Bit rate mode : Variable
Bit rate : 123 Kbps
Minimum bit rate : 128 Kbps
Channel(s) : 2 channels
Sampling rate : 48.0 KHz
Resolution : 16 bits
Stream size : 35.9 MiB (10%)
Alignment : Aligned on interleaves
Interleave, duration : 24 ms (0.58 video frame)
Interleave, preload duration : 472 ms
Writing library : LAME3.98r
Encoding settings : ABR

Ringraziamenti: Ad Itasa per i sottotitoli, e ai realizzatori del video

Related torrents

Torrent NameAddedSizeSeedLeechHealth
1 Year+ - in TV shows723.11 MB00
5 months ago - in Other715.88 MB00
1 Year+ - in TV shows425.68 MB02
1 Year+ - in TV shows340 MB10
1 Year+ - in TV shows340 MB10
1 Year+ - in TV shows338.99 MB12

Note :

Feel free to post any comments about this torrent, including links to Subtitle, samples, screenshots, or any other relevant information. Please Dont Download anything from Comments, And Dont Post Links to Streaming Sites like Fmovies, Xmovies8, 123Movies, GoMovies, CMovieshd, Solarmovie, Watchfree, Putlockers, GoStream, m4ufree etc.

Comments (0 Comments)

Please login or create a FREE account to post comments

Latest Searches

| the rock 60s | Pirates of the Caribbean The Curse of the Black Pearl 2003 English Hindi | children corn 2018 | Occult Of Flesh And Blood | le 5 giornate di | George Thorogood Discography 1977 2014 reworked | bioshock gary | harry potter j k rowling pdf | 1080p The Vanishing Of Sidney Hall 2017 | Private Flexible in Creampie Debut Melisa |