Quick Browse
Movies
TV shows
Music
Games
Applications
Anime
Other
Facebook
Advertising

Friends
Torrent Download
Movie4u
1337x.to
Torrent Downloads




Verified torrent Supernatural S08e08 - Hunteri Heroici [HDTV - XviD - English Mp3 - Sub Italian] By okuto MIRCrew


    Seeders : 11      Leechers : 2

Trackers List

Tracker NameLast CheckStatusSeedersLeechers




Torrent File Content (1 file)


     Supernatural - 8x08 - Hunteri Heroici.HDTV.XviD (Sub Ita bianchi by okuto).avi -
344.84 MB



Description



Supernatural S08e08 - Hunteri Heroici  [HDTV - XviD - English Mp3 - Sub Italian] By okuto MIRCrew




[color=green]
http://img24.imageshack.us/img24/4012/mircrewrel02.gif


http://i752.photobucket.com/albums/xx170/robbyrs/senzatitolo1le.gif


Sottotitoli italiani a cura di okuto che ringrazio

Episodi presenti:

08 - Hunteri Heroici

http://img717.imageshack.us/img717/8969/descrizione.png


Titolo originale Supernatural
Paese Stati Uniti d'America
Anno 2005 – in produzione
Formato serie TV
Genere horror, thriller, fantasy
Stagioni 8
Episodi 149+++++
Durata 45 minuti (episodio)
Lingua originale inglese
Caratteristiche tecniche
Aspect ratio 16:9
Ideatore Eric Kripke
Produttore Kripke Enterprises, Wonderland Sound and Vision e Warner Bros. Television



http://img42.imageshack.us/img42/4875/castgs.png


Jared Padalecki: Sam Winchester
Jensen Ackles: Dean Winchester
Katie Cassidy: Ruby
Lauren Cohan: Bela Talbot
Misha Collins: Castiel

Doppiatori e personaggi

David Chevalier: Sam Winchester
Stefano Crescentini: Dean Winchester
Domitilla D'Amico: Ruby
Myriam Catania: Bela Talbot
Vittorio Guerrieri: Castiel


1 We Need to Talk About Kevin
2 What's Up, Tiger Mommy?
3 Heartache
4 Bitten
5 Blood Brother
6 Southern Comfort
7 A Little Slice of Kevin
8 Hunteri Heroici
9 Citizen Fang
10 Tom and Frayed
-
-
-
-
-

http://i752.photobucket.com/albums/xx170/robbyrs/vlcsnap-2012-12-06-11h11m55s208.jpg



http://img855.imageshack.us/img855/7638/recensionet.png


Sam e Dean si riuniscono dopo un anno di distanza - Dean riemerge dal Purgatorio, ma non è solo. Si dirige dritto da Sam, ma la reunion non è esattamente quello che pensava sarebbe stato.

Per Sam ritornare con il fratello, lasciando la vita che si era creato risulta essere più difficile di quanto si immaginava. Dean e Sam cercano Kevin (guest star Osric Chau), che è

riuscito a fuggire da Crowley (guest star Mark Sheppard) presa, ma le cose precipitano rapidamente quando Kevin dice loro che cosa vuole Crowley.

http://i752.photobucket.com/albums/xx170/robbyrs/vlcsnap-2012-12-06-11h11m47s112.jpg


http://i752.photobucket.com/albums/xx170/robbyrs/vlcsnap-2012-12-06-11h12m25s11.jpg



DATI FILE:

General
Complete name : Supernatural -
Format : AVI
Format/Info : Audio Video Interleave
File size : 345 MiB
Duration : 41mn 59s
Overall bit rate : 1 149 Kbps
Writing library : VirtualDub build 32842/release

Video
ID : 0
Format : MPEG-4 Visual
Format profile : Advanced [email protected]
Format settings, BVOP : Yes
Format settings, QPel : No
Format settings, GMC : No warppoints
Format settings, Matrix : Default (H.263)
Muxing mode : Packed bitstream
Codec ID : XVID
Codec ID/Hint : XviD
Duration : 41mn 59s
Bit rate : 1 008 Kbps
Width : 640 pixels
Height : 360 pixels
Display aspect ratio : 16:9
Frame rate : 23.976 fps
Color space : YUV
Chroma subsampling : 4:2:0
Bit depth : 8 bits
Scan type : Progressive
Bits/(Pixel*Frame) : 0.183
Stream size : 303 MiB (88%)
Writing library : XviD 1.1.2 (UTC 2006-11-01)

Audio
ID : 1
Format : MPEG Audio
Format version : Version 1
Format profile : Layer 3
Mode : Joint stereo
Mode extension : MS Stereo
Codec ID : 55
Codec ID/Hint : MP3
Duration : 41mn 58s
Bit rate mode : Variable
Bit rate : 128 Kbps
Channel(s) : 2 channels
Sampling rate : 48.0 KHz
Stream size : 38.4 MiB (11%)
Alignment : Aligned on interleaves
Interleave, duration : 24 ms (0.58 video frame)
Interleave, preload duration : 490 ms





http://img40.imageshack.us/img40/2121/avrhgfsq3ik77m3offo0.gif


[/color]


Related torrents

Torrent NameAddedSizeSeedLeechHealth
Verified torrent
1 Year+ - in TV shows344.74 MB228
Verified torrent
1 Year+ - in TV shows344.54 MB82
Verified torrent
1 Year+ - in TV shows344.67 MB12
Verified torrent
1 Year+ - in TV shows344.95 MB10
Verified torrent
1 Year+ - in TV shows344.81 MB10

Comments (0 Comments)




Please login or create a FREE account to post comments

Latest Searches

| Castle 2009 S05E24 | r e dolby | allegiance s01e08 the arrival 720p web dl 2ch x265 hevc psa | BigTitsBoss Olivia Fox | The Curio Society 3 The Thief of Life Collectors Edition | Lena Paul in Daddy Issues Regrets | step by step 2016 pdf | 8 Mile Rua Das Ilusoes | Traitor s Gate Traitors 1 by Michael Ridpath | K J Charles a charm |