Quick Browse
Movies
TV shows
Music
Games
Applications
Anime
Other
Facebook
Advertising

Friends
Torrent Download
Movie4u
1337x.to
Torrent Downloads




T I feat Rihanna - Live Your Life {XVID} [Solly4Life]


    Seeders : 11      Leechers : 4
Hash :FF86118D7F921FDE5F1FE683DFF8EBFDD42359D1
Added :1 Year+ in Music - Music
Size :54.7 MB
Stream :WATCH ONLINE @ Movie4u


T I feat Rihanna - Live Your Life {XVID} [Solly4Life]
Free and Fast Download with Usenet 300GB+ free







Trackers List

Tracker NameLast CheckStatusSeedersLeechers




Torrent File Content (1 file)


     T.I. feat. Rihanna - Live Your Life {XVID} [Solly4Life].rar -
54.7 MB



Description



General
Complete name : T.I. feat. Rihanna - Live Your Life {XVID} [Solly4Life].avi
Format : AVI
Format/Info : Audio Video Interleave
File size : 55.6 MiB
Duration : 5mn 37s
Overall bit rate : 1 381 Kbps
Writing library : Boilsoft Joiner build 2411/release

Video
Format : MPEG-4 Visual
Format profile : Streaming [email protected]
Format settings, BVOP : Yes
Format settings, QPel : No
Format settings, GMC : No warppoints
Format settings, Matrix : Default (H.263)
Muxing mode : Packed bitstream
Codec ID : XVID
Codec ID/Hint : XviD
Duration : 5mn 37s
Bit rate : 1 179 Kbps
Width : 640 pixels
Height : 480 pixels
Display aspect ratio : 4/3
Frame rate : 25.000 fps
Resolution : 24 bits
Colorimetry : 4:2:0
Scan type : Interlaced
Scan order : Bottom Field First
Bits/(Pixel*Frame) : 0.154
Stream size : 47.5 MiB (85%)
Writing library : XviD 1.1.2 (UTC 2006-11-01)

Audio
Format : MPEG Audio
Format version : Version 1
Format profile : Layer 3
Codec ID : 55
Codec ID/Hint : MP3
Duration : 5mn 37s
Bit rate mode : Constant
Bit rate : 192 Kbps
Channel(s) : 2 channels
Sampling rate : 48.0 KHz
Resolution : 16 bits
Stream size : 7.73 MiB (14%)
Alignment : Split accross interleaves
Interleave, duration : 40 ms (1.00 video frame)
Interleave, preload duration : 500 ms
Writing library : LAME3.97


Related torrents

Torrent NameAddedSizeSeedLeechHealth
1 Year+ - in Music42.39 MB21
1 Year+ - in Music5.52 MB00
1 Year+ - in Music5.48 MB00
1 Year+ - in Music5.52 MB854
1 Year+ - in Music5.48 MB00

Comments (0 Comments)




Please login or create a FREE account to post comments

Latest Searches

| World Without End 2012 BRRip | killing crime | i want it you got it | creamed by bbc | i want you got it | The Americans season 3 hevc | BLACKED Classy Wife Jade Nile Enjoys BBC for her Husband | VELNA 3 UNCEN | Marvels Agents of S H I E L D S04E08 HDTV x264 | The Americans hevc |