Quick Browse
Movies
TV shows
Music
Games
Applications
Anime
Other
Facebook
Advertising

Friends
Torrent Download
Movie4u
1337x.to
Torrent Downloads




TNA.Sacrifice 15.05.2011 PPV HDTV XviD-XS -=MTR=-


    Seeders : 1      Leechers : 8
Hash :7B96F935DAC0C7324A676E0337F41CADF823C21F
Added :1 Year+ by demon89Verified torrent uploader in TV shows
Size :1.48 GB
Stream :WATCH ONLINE @ Movie4u


TNA.Sacrifice 15.05.2011 PPV HDTV XviD-XS -=MTR=-
Free and Fast Download with Usenet 300GB+ free







Trackers List

Tracker NameLast CheckStatusSeedersLeechers




Torrent File Content (4 files)


TNA Sacrifice 15.05.2011 PPV HDTV XviD-XS -=MTR=- TDM mastitorrents
     www.mastitorrents.com.nfo -
310 bytes

     TNA Sacrifice 15.05.2011 PPV HDTV XviD-XS -=MTR=- TDM mastitorrents.avi -
1.48 GB

     (www.mastitorrents.com).txt -
560 bytes

     -=MTR=- [Masti Torrents Releasers].txt -
169 bytes



Description



http://wrestlingpronews.com/wp-content/uploads/2011/03/TNA_Sacrifice_2011.jpg



description:


[email protected]

General Information
Complete name : TNA.Sacrifice.2011.PPV.HDTV.XviD-XS.avi
Format : AVI
Format/Info : Audio Video Interleave
Format profile : OpenDML
File size : 1.48 GiB
Duration : 2hr 53mn 48s
Overall bit rate : 1 202 Kbps
Writing application : Lavf51.12.1
Video
ID : 0
Format : MPEG-4 Visual
Format profile : [email protected]
Format settings, BVOP : No
Format settings, QPel : No
Format settings, GMC : No warppoints
Format settings, Matrix : Default (H.263)
Codec ID : DX50
Codec ID/Hint : DivX 5
Duration : 2hr 53mn 48s
Bit rate : 1 074 Kbps
Width : 624 pixels
Height : 352 pixels
Display aspect ratio : 16:9
Frame rate : 29.970 fps
Color space : YUV
Chroma subsampling : 4:2:0
Bit depth : 8 bits
Scan type : Progressive
Bits/(Pixel*Frame) : 0.163
Stream size : 460 MiB (30%)
Writing library : Lavc51.40.4
Audio
ID : 1
Format : MPEG Audio
Format version : Version 1
Format profile : Layer 3
Mode : Joint stereo
Mode extension : MS Stereo
Codec ID : 55
Codec ID/Hint : MP3
Duration : 2hr 53mn 48s
Bit rate mode : Constant
Bit rate : 128 Kbps
Channel(s) : 2 channels
Sampling rate : 48.0 KHz
Stream size : 2.59 MiB (0%)
Alignment : Aligned on interleaves
Interleave, duration : 508 ms (15.23 video frames)

Related torrents

Torrent NameAddedSizeSeedLeechHealth
1 Year+ - in TV shows1.48 GB1213
1 Year+ - in TV shows2.45 GB00
1 Year+ - in TV shows1.43 GB00
1 Year+ - in TV shows10.04 MB16
1 Year+ - in TV shows1.47 GB12

Comments (0 Comments)




Please login or create a FREE account to post comments

Latest Searches

| australia beyond 2020 s01e02 | three stooges wham bam slam | American Cousins | australia beyond 2020 s01e01 | hard to fit | Tito El Bambino | Howard Stern Show FEB 17 2016 Wed Best Of | Carlos vives t | ice S01E03 hdtv | Airtight Sex |