Quick Browse
Movies
TV shows
Music
Games
Applications
Anime
Other
Facebook
Advertising

Friends
Torrent Download
Movie4u
1337x.to
Torrent Downloads




TRANSFORMERS 1 m4v Transformers 2 mp4 dvdrip (eng, esp, fre)


    Seeders : 22      Leechers : 34

Trackers List

Tracker NameLast CheckStatusSeedersLeechers




Torrent File Content (16 files)


TRANSFORMERS
    snap shots
          vlcsnap-00004 (2).png -
407.11 KB

          vlcsnap-00006.png -
406.06 KB

          vlcsnap-00003.png -
401.11 KB

          vlcsnap-00005 (2).png -
396.55 KB

          vlcsnap-00001 (2).png -
362.47 KB

          vlcsnap-00003 (2).png -
349.51 KB

          vlcsnap-00005.png -
329.68 KB

          vlcsnap-00002 (2).png -
316.57 KB

          vlcsnap-00004.png -
298.88 KB

          vlcsnap-00002.png -
291.93 KB

          vlcsnap-00001.png -
281.2 KB

          vlcsnap-00006 (2).png -
201.9 KB

     Transformers Revenge of the Fallen (2009).mp4 -
1.32 GB

     TRANSFORMERS.m4v -
1.27 GB

     Read Me.nfo -
9.12 KB

     Torrent downloaded from Demonoid.com.txt -
47 bytes



Description



TRANSFORMERS (2007) IMDB: http://www.imdb.com/title/tt0418279/
TRANSFORMERS: Revenge Of the Fallen (2009) : http://www.imdb.com/title/tt1055369/
http://i879.photobucket.com/albums/ab359/Bokdemonoid/vlcsnap-00001.png
http://i879.photobucket.com/albums/ab359/Bokdemonoid/vlcsnap-000012.png
http://i879.photobucket.com/albums/ab359/Bokdemonoid/vlcsnap-00002.png
http://i879.photobucket.com/albums/ab359/Bokdemonoid/vlcsnap-000022.png
http://i879.photobucket.com/albums/ab359/Bokdemonoid/vlcsnap-00003.png
http://i879.photobucket.com/albums/ab359/Bokdemonoid/vlcsnap-000032.png
http://i879.photobucket.com/albums/ab359/Bokdemonoid/vlcsnap-00004.png
http://i879.photobucket.com/albums/ab359/Bokdemonoid/vlcsnap-000042.png
http://i879.photobucket.com/albums/ab359/Bokdemonoid/vlcsnap-00005.png
http://i879.photobucket.com/albums/ab359/Bokdemonoid/vlcsnap-000052.png
http://i879.photobucket.com/albums/ab359/Bokdemonoid/vlcsnap-00006.png
http://i879.photobucket.com/albums/ab359/Bokdemonoid/vlcsnap-000062.png
General Complete name : C:TRANSFORMERSTorrent downloaded from Demonoid.com.txt File size : 47.0 Bytes General Complete name : C:TRANSFORMERSTransformers Revenge of the Fallen (2009).mp4 Format : MPEG-4 Format profile : Base Media / Version 2 Codec ID : mp42 File size : 1.32 GiB Duration : 2h 29mn Overall bit rate : 1 261 Kbps Encoded date : UTC 2009-12-04 00:28:14 Tagged date : UTC 2009-12-04 02:20:17 Writing application : HandBrake 0.9.4 2009112300 Video ID : 1 Format : AVC Format/Info : Advanced Video Codec Format profile : [email protected] Format settings, CABAC : Yes Format settings, ReFrames : 2 frames Codec ID : avc1 Codec ID/Info : Advanced Video Coding Duration : 2h 29mn Bit rate mode : Variable Bit rate : 868 Kbps Width : 720 pixels Height : 304 pixels Display aspect ratio : 2.35:1 Frame rate mode : Variable Frame rate : 23.976 fps Minimum frame rate : 11.989 fps Maximum frame rate : 29.970 fps Resolution : 24 bits Colorimetry : 4:2:0 Scan type : Progressive Bits/(Pixel*Frame) : 0.165 Stream size : 930 MiB (69%) Writing library : x264 core 79 Audio #1 ID : 2 Format : AAC Format/Info : Advanced Audio Codec Format version : Version 4 Format profile : LC Format settings, SBR : No Codec ID : 40 Duration : 2h 29mn Bit rate mode : Variable Bit rate : 128 Kbps Maximum bit rate : 200 Kbps Channel(s) : 2 channels Channel positions : L R Sampling rate : 48.0 KHz Resolution : 16 bits Stream size : 137 MiB (10%) Language : English Encoded date : UTC 2009-12-04 00:28:14 Tagged date : UTC 2009-12-04 02:20:17 Audio #2 ID : 3 Format : AAC Format/Info : Advanced Audio Codec Format version : Version 4 Format profile : LC Format settings, SBR : No Codec ID : 40 Duration : 2h 29mn Bit rate mode : Variable Bit rate : 128 Kbps Maximum bit rate : 200 Kbps Channel(s) : 2 channels Channel positions : L R Sampling rate : 48.0 KHz Resolution : 16 bits Stream size : 137 MiB (10%) Language : French Encoded date : UTC 2009-12-04 00:28:14 Tagged date : UTC 2009-12-04 02:20:17 Audio #3 ID : 4 Format : AAC Format/Info : Advanced Audio Codec Format version : Version 4 Format profile : LC Format settings, SBR : No Codec ID : 40 Duration : 2h 29mn Bit rate mode : Variable Bit rate : 128 Kbps Maximum bit rate : 200 Kbps Channel(s) : 2 channels Channel positions : L R Sampling rate : 48.0 KHz Resolution : 16 bits Stream size : 137 MiB (10%) Language : Spanish Encoded date : UTC 2009-12-04 00:28:14 Tagged date : UTC 2009-12-04 02:20:17 General Complete name : C:TRANSFORMERSTRANSFORMERS.m4v Format : MPEG-4 Format profile : Base Media / Version 2 Codec ID : mp42 File size : 1.27 GiB Duration : 2h 23mn Overall bit rate : 1 264 Kbps Encoded date : UTC 2009-12-04 08:31:05 Tagged date : UTC 2009-12-04 10:13:46 Writing application : HandBrake 0.9.4 2009112300 Video ID : 1 Format : AVC Format/Info : Advanced Video Codec Format profile : [email protected] Format settings, CABAC : Yes Format settings, ReFrames : 2 frames Codec ID : avc1 Codec ID/Info : Advanced Video Coding Duration : 2h 23mn Bit rate mode : Variable Bit rate : 872 Kbps Width : 720 pixels Height : 304 pixels Display aspect ratio : 2.35:1 Frame rate mode : Variable Frame rate : 23.976 fps Minimum frame rate : 11.989 fps Maximum frame rate : 29.970 fps Resolution : 24 bits Colorimetry : 4:2:0 Scan type : Progressive Bits/(Pixel*Frame) : 0.166 Stream size : 895 MiB (69%) Writing library : x264 core 79 Audio #1 ID : 2 Format : AAC Format/Info : Advanced Audio Codec Format version : Version 4 Format profile : LC Format settings, SBR : No Codec ID : 40 Duration : 2h 23mn Bit rate mode : Variable Bit rate : 128 Kbps Maximum bit rate : 202 Kbps Channel(s) : 2 channels Channel positions : L R Sampling rate : 48.0 KHz Resolution : 16 bits Stream size : 131 MiB (10%) Language : English Encoded date : UTC 2009-12-04 08:31:05 Tagged date : UTC 2009-12-04 10:13:46 Audio #2 ID : 3 Format : AAC Format/Info : Advanced Audio Codec Format version : Version 4 Format profile : LC Format settings, SBR : No Codec ID : 40 Duration : 2h 23mn Bit rate mode : Variable Bit rate : 128 Kbps Maximum bit rate : 201 Kbps Channel(s) : 2 channels Channel positions : L R Sampling rate : 48.0 KHz Resolution : 16 bits Stream size : 131 MiB (10%) Language : French Encoded date : UTC 2009-12-04 08:31:05 Tagged date : UTC 2009-12-04 10:13:46 Audio #3 ID : 4 Format : AAC Format/Info : Advanced Audio Codec Format version : Version 4 Format profile : LC Format settings, SBR : No Codec ID : 40 Duration : 2h 23mn Bit rate mode : Variable Bit rate : 128 Kbps Maximum bit rate : 201 Kbps Channel(s) : 2 channels Channel positions : L R Sampling rate : 48.0 KHz Resolution : 16 bits Stream size : 131 MiB (10%) Language : Spanish Encoded date : UTC 2009-12-04 08:31:05 Tagged date : UTC 2009-12-04 10:13:46 Text ID : 5 Format : Apple text Codec ID : text Duration : 2h 23mn Bit rate mode : Variable Bit rate : 1 bps Stream size : 543 Bytes (0%) Encoded date : UTC 2009-12-04 08:31:05 Tagged date : UTC 2009-12-04 10:13:46

Related torrents

Torrent NameAddedSizeSeedLeechHealth
5 months ago - in Other4.07 GB00
1 Year+ - in Movies7.96 GB00
1 Year+ - in Movies2.96 GB22
1 Year+ - in Movies7.96 GB00
1 Year+ - in Movies7.92 GB24

Comments (0 Comments)




Please login or create a FREE account to post comments

Latest Searches

| Double Penetration 2 2015 | p o d discography 1994 14 channel neo | miss sloane | rachel starr stacked hardbodies 2013 | Bellator 166 Dantas vs Warren 2 720p HDTV x264 Ebi TJET | orbison l | Bellator 166 Dantas vs Warren 2 4 Ebi TJET | microsoft book office 2010 | D loe | zoo stb |