Quick Browse
Movies
TV shows
Music
Games
Applications
Anime
Other
Facebook
Advertising

Friends
Torrent Download
Movie4u
1337x.to
Torrent Downloads




TUM MILE 2009 Theatrical Trailer AVI MP3 xRG HINDI MOVIE


    Seeders : 1      Leechers : 1
Hash :307B27649E0AD6AA0B075E5E30A6117985B5E585
Added :1 Year+ in Movies
Size :19.1 MB
Stream :WATCH ONLINE @ Movie4u


TUM MILE 2009 Theatrical Trailer AVI MP3 xRG HINDI MOVIE
Free and Fast Download with Usenet 300GB+ free







Trackers List

Tracker NameLast CheckStatusSeedersLeechers




Torrent File Content (1 file)


     TUM MILE 2009_Theatrical Trailer_AVI_MP3_xRG.avi -
19.1 MB



Description



TUM MILE 2009 Theatrical Trailer AVI MP3 xRG HINDI MOVIE


screenshot

http://i36.tinypic.com/2n83rtg.jpg

http://i33.tinypic.com/2qxanus.jpg

http://i38.tinypic.com/346q805.jpg

http://i33.tinypic.com/6xq5gp.jpg

http://i34.tinypic.com/72yv49.jpg


info

Format : AVI
Format/Info : Audio Video Interleave
Format profile : OpenDML
File size : 19.1 MiB
Duration : 3mn 57s
Overall bit rate : 673 Kbps
Writing application : AVI-Mux GUI 1.17.7, Aug 8 2006 20:59:17

Video
ID : 0
Format : MPEG-4 Visual
Format profile : [email protected]
Format settings, BVOP : Yes
Format settings, QPel : Yes
Format settings, GMC : No warppoints
Format settings, Matrix : Default (H.263)
Codec ID : XVID
Codec ID/Hint : XviD
Duration : 1mn 58s
Bit rate : 1 289 Kbps
Width : 688 pixels
Height : 288 pixels
Display aspect ratio : 2.35:1
Frame rate : 29.970 fps
Resolution : 24 bits
Colorimetry : 4:2:0
Scan type : Progressive
Bits/(Pixel*Frame) : 0.217
Stream size : 18.3 MiB (96%)
Writing library : XviD 1.2.1 (UTC 2008-12-04)

Audio
ID : 1
Format : MPEG Audio
Format version : Version 2
Format profile : Layer 3
Codec ID : 55
Codec ID/Hint : MP3
Duration : 3mn 57s
Bit rate mode : Variable
Bit rate : 43.0 Kbps
Minimum bit rate : 8 000 bps
Channel(s) : 2 channels
Sampling rate : 22.05 KHz
Resolution : 16 bits
Stream size : 628 KiB (3%)
Alignment : Aligned on interleaves
Interleave, duration : 26 ms (0.78 video frame)
Interleave, preload duration : 67 ms
Title : YouTube - TUM MILE PROMO Tc0 L2 2ch 48 384 DELAY 0ms
Writing library : LAME3.98r
Encoding settings : -m j -V 9 -q 0 -lowpass 9.5 --vbr-new -b 8


Related torrents

Torrent NameAddedSizeSeedLeechHealth
1 Year+ - in Movies20.07 MB51
1 Year+ - in Movies17.96 MB11
1 Year+ - in Movies19.51 MB00
1 Year+ - in Movies695.8 MB03
1 Year+ - in Music335.26 MB00

Comments (0 Comments)




Please login or create a FREE account to post comments

Latest Searches

| Girls Love Sex Samantha Rone | salt n | SAM Broadcaster 4 3 6 Full | almost christmas 2016 hc 720p hdrip | Gucci Mane Dj Drama | machine noisia | creepy archives volume 18 2014 digital empire cbr nem | Botanica 2 Earthbound Collectors Edition | Almost Christmas 2016 HC 720p HDRiP 1GB ShAaNiG | Fringe S05e13 Versione 720p Mux 720p H264 Ita Eng Ac3 Sub Ita Eng TntVillage |