Quick Browse
Movies
TV shows
Music
Games
Applications
Anime
Other
Facebook
Advertising

Friends
Torrent Download
Movie4u
1337x.to
Torrent Downloads




Verified torrent Take Me Home Tonight 2011 DVDRip XViD-EP1C


    Seeders : 1      Leechers : 1
Hash :A7E9FB8D45B521A8AD06DBDF1AE5C6E9C4F45B34
Added :1 Year+ by memory100Verified torrent uploader in Movies
Size :702.08 MB
Stream :WATCH ONLINE @ Movie4u


Take Me Home Tonight 2011 DVDRip XViD-EP1C
Free and Fast Download with Usenet 300GB+ free







Trackers List

Tracker NameLast CheckStatusSeedersLeechers




Torrent File Content (9 files)


Take.Me.Home.Tonight.2011.DVDRip.XViD-EP1C
     Budget seedboxs.txt -
44 bytes

     NW RG.nfo -
12.96 KB

     SAMPLE.avi -
2.86 MB

     Take.Me.Home.Tonight.2011.DVDRip.XViD-EP1C.avi -
699.2 MB

     Take.Me.Home.Tonight.2011.DVDRip.XViD-EP1C.nfo -
3.61 KB

     Torrent downloaded from Demonoid.me.txt -
46 bytes

     dreamthe.net.txt -
91 bytes

     northernwarriors.net.txt -
135 bytes

     sceneunderground.org.txt -
77 bytes



Description



http://i.imgur.com/uvYZr.jpg

[code]
::File:: Take.Me.Home.Tonight.2011.DVDRip.XViD-EP1C

::Video Source:: DVD
::Language:::::: English
::IMDB:::::::::: http://www.imdb.com/title/tt0810922/
Follow an aimless college grad who pursues his dream girl at
a wild Labor Day weekend party. He, his twin sister and their
best friend struggle with their burgeoning adulthood over the course of the night.

::Specs:::::::::
Format : AVI
Format/Info : Audio Video Interleave
File size : 699 MiB
Duration : 1h 37mn
Overall bit rate : 1 005 Kbps
Writing application : VirtualDubMod 1.5.10.2 (build 2540/release)
Writing library : VirtualDubMod build 2540/release

Video
ID : 0
Format : MPEG-4 Visual
Format profile : Advanced [email protected]
Format settings, BVOP : 2
Format settings, QPel : No
Format settings, GMC : No warppoints
Format settings, Matrix : Default (H.263)
Muxing mode : Packed bitstream
Codec ID : XVID
Codec ID/Hint : XviD
Duration : 1h 37mn
Bit rate : 861 Kbps
Width : 624 pixels
Height : 256 pixels
Display aspect ratio : 2.40:1
Frame rate : 23.976 fps
Color space : YUV
Chroma subsampling : 4:2:0
Bit depth : 8 bits
Scan type : Progressive
Compression mode : Lossy
Bits/(Pixel*Frame) : 0.225
Stream size : 599 MiB (86%)
Writing library : XviD 1.2.1 (UTC 2008-12-04)

Audio
ID : 1
Format : MPEG Audio
Format version : Version 1
Format profile : Layer 3
Mode : Joint stereo
Mode extension : MS Stereo
Codec ID : 55
Codec ID/Hint : MP3
Duration : 1h 37mn
Bit rate mode : Variable
Bit rate : 128 Kbps
Channel(s) : 2 channels
Sampling rate : 48.0 KHz
Compression mode : Lossy
Stream size : 91.5 MiB (13%)
Alignment : Aligned on interleaves
Interleave, duration : 24 ms (0.58 video frame)
Interleave, preload duration : 224 ms

::NOTES:::::::::
Presents Take Me Home Tonight
Enjoy. // EP1C
[/code]
Screens:
http://i.imgur.com/Zd8Hz.png

http://i.imgur.com/Y1LsN.png

http://i.imgur.com/FaLTB.png

http://i.imgur.com/28r2U.png

Related torrents

Torrent NameAddedSizeSeedLeechHealth
1 Year+ - in Movies702.06 MB03
1 Year+ - in Movies699.2 MB00
1 Year+ - in Movies702.06 MB00
Verified torrent
1 Year+ - in Movies702.06 MB00
2 months ago - in Movies6.55 GB00

Comments (0 Comments)




Please login or create a FREE account to post comments

Latest Searches

| crisis in consciousness | the secret life of walter mitty ost 2013 | Future 2013 FBG | The Seduction Of Abella Danger Devils Film NEW 2016 WEB DL Split Scenes | shoote | AnimeRG Dragon Ball Super 069 | black 9 pc | chubby ir | Jumpstart 2 | im on that liquor |