Quick Browse
Movies
TV shows
Music
Games
Applications
Anime
Other
Facebook
Advertising

Friends
Torrent Download
Movie4u
1337x.to
Torrent Downloads




Verified torrent Taken 2 2012 RETAIL DVDRIP XVID AC3 5.1-26K


    Seeders : 0      Leechers : 0
Hash :E8D8620E4CA1E878F7B6193F200363AFB46C3A44
Added :1 Year+ by memory100Verified torrent uploader in Movies
Size :1.47 GB
Stream :WATCH ONLINE @ Movie4u


Taken 2 2012 RETAIL DVDRIP XVID AC3 5.1-26K
Free and Fast Download with Usenet 300GB+ free







Trackers List

Tracker NameLast CheckStatusSeedersLeechers




Torrent File Content (9 files)


Taken.2.2012.RETAIL.DVDRIP.XVID.AC3.5.1-26K
     Taken.2.2012.DVDRIP.XVID.AC3.5.1-26K.avi -
1.44 GB

     Sample2.avi -
13.64 MB

     Sample.avi -
13.31 MB

     Taken.2.2012.DVDRIP.XVID.AC3.5.1-26K.srt -
48.52 KB

     Taken.2.2012.RETAIL.DVDRIP.XVID.AC3.5.1-26K.nfo -
9.95 KB

     Meggafast.com.txt -
124 bytes

     YouTube Latest Releases And Archive.txt -
86 bytes

     Sceneunderground.org.txt -
77 bytes

     Torrent downloaded from rarbg.com.txt.txt -
0 bytes



Description



http://i.imgrz.com/8nUSK.jpg

[code]
Taken.2.2012.RETAIL.DVDRIP.XVID.AC3.5.1-26K

http://uk.imdb.com/title/tt1397280/

Plot:
In Istanbul, retired CIA operative Bryan Mills and his wife are taken hostage by the father of a kidnapper Mills

killed while rescuing his daughter.

Sources - Audio-TAKEN.2.2012.DVDR-HS....Thanks :P
VIDEO-TAKEN.2.2012.DVDR-HS.....Thanks :P
Subs-ENGLISH.SRT IN TORRENT...
Video
ID : 0
Format : MPEG-4 Visual
Format profile : Advanced [email protected]
Format settings, BVOP : 2
Format settings, QPel : No
Format settings, GMC : No warppoints
Format settings, Matrix : Default (H.263)
Muxing mode : Packed bitstream
Codec ID : XVID
Codec ID/Hint : XviD
Duration : 1h 32mn
Bit rate : 1 845 Kbps
Width : 720 pixels
Height : 304 pixels
Display aspect ratio : 2.35:1
Frame rate : 23.976 fps
Color space : YUV
Chroma subsampling : 4:2:0
Bit depth : 8 bits
Scan type : Progressive
Compression mode : Lossy
Bits/(Pixel*Frame) : 0.352
Stream size : 1.19 GiB (83%)
Writing library : XviD 64

Audio
ID : 1
Format : AC-3
Format/Info : Audio Coding 3
Mode extension : CM (complete main)
Format settings, Endianness : Big
Codec ID : 2000
Duration : 1h 32mn
Bit rate mode : Constant
Bit rate : 384 Kbps
Channel(s) : 6 channels
Channel positions : Front: L C R, Side: L R, LFE
Sampling rate : 44.1 KHz
Bit depth : 16 bits
Compression mode : Lossy
Stream size : 253 MiB (17%)
Alignment : Split accross interleaves
Interleave, duration : 5492 ms (131.68 video frames)

Notes -
RETAIL COPY HERE IS PROOF: http://i.imgur.com/xkdUt.png .. WITH THAT SAID ENJOY!

[/code]

Screens:
http://i.imgur.com/J1m5F.png

http://i.imgur.com/KVGGk.png

http://i.imgur.com/FUmhd.png

http://s7.postimage.org/a0znjm9p7/vlcsnap_2012_12_19_22h06m25s96.png

http://s7.postimage.org/6innn88t7/vlcsnap_2012_12_19_22h06m47s69.png

http://s7.postimage.org/54w0rx9jv/vlcsnap_2012_12_19_22h06m51s105.png


Greetz:
XtremeEncode|CM8|RX|VISION|HDSCENE|xTriLL|DTRG|CRYS|BIDA|RX|REFILL|INSPiRAL|AXED|HOPE|Anonymous|NOIR|

Blackjesus|Gabroo Punjab Deh|UNiQUE|DQ1|RESiSTANCE|HS||LEGION|STN|BOBBYBLUE|LIFT

To all the people who have helped me you know who you are

Anything to offer email us @: [email protected]

http://www.youtube.com/watch?v=2vAMxKvZqwU&feature=related

Related torrents

Torrent NameAddedSizeSeedLeechHealth
1 Year+ - in Movies1.47 GB124
1 Year+ - in Movies1.85 GB18
Verified torrent
1 Year+ - in Movies1.85 GB00
1 Year+ - in Movies1.34 GB10
1 Year+ - in Movies1.34 GB11

Comments (0 Comments)




Please login or create a FREE account to post comments

Latest Searches

| The Clipse | nem new 52 tpb | L T D time for pleasure | It Watches 2016 | different position sex | ritorno ewoks ita | Great British Food Christmas November 2016 | jennifer lopez medley | Brazilian teen amateur | dominic monaghan s03e09 |