Quick Browse
Movies
TV shows
Music
Games
Applications
Anime
Other

Donate and Support

Friends
Torrents.me
Torrent Download
Free Movies
1337x
RARBG
Torrent Downloads

Verified torrent Taken In Broad Daylight [DVD5] [ENG] [AC3] [Hannspree]


    Seeders : 4      Leechers : 6
Hash :98EED8E909A6C899A589B9F307BDA5EFCF487EAF
Added :1 Year+ by HannspreeVerified torrent uploader in Movies
Size :1.72 GB
Stream :Watch Full Movies Online @ Movie4u
Share :


Taken In Broad Daylight [DVD5] [ENG] [AC3] [Hannspree]
Anonymous and Direct Download 300GB+ free







Warning! Do not Download Torrents Without a VPN!
Your IP Address is .   And Location is
Your Internet Provider and Government can track your torrent Activity!  Hide your IP ADDRESS with a VPN!
We Strongly Recommend Using SpyOFF Torrent VPN to Anonymize your Torrenting. It's FREE For 15 Days!

Note :

Please Update (Trackers Info) Before Downloading Torrents to See Updated Seeders And Leechers for Batter Download Speed.

Trackers List

Tracker NameLast CheckStatusSeedersLeechers




Torrent File Content (13 files)


Taken In Broad Daylight
    Taken In Broad Daylight [DVD]
          VIDEO_TS/VIDEO_TS.BUP -
12 KB

          VIDEO_TS/VIDEO_TS.IFO -
12 KB

          VIDEO_TS/VIDEO_TS.VOB -
60 KB

          VIDEO_TS/VTS_01_0.BUP -
64 KB

          VIDEO_TS/VTS_01_0.IFO -
64 KB

          VIDEO_TS/VTS_01_0.VOB -
58 KB

          VIDEO_TS/VTS_01_1.VOB -
1023.97 MB

          VIDEO_TS/VTS_01_2.VOB -
737.99 MB

    Taken In Broad Daylight [Images]
          Taken In Broad Daylight [Cover].jpg -
52.59 KB

          Taken In Broad Daylight [Disc].jpg -
193.75 KB

          Taken In Broad Daylight [Screens].jpg -
128.95 KB

     Taken In Broad Daylight.NFO -
3.75 KB

     Torrent downloaded from H33T.org.txt -
43 bytes



Description



=====================================================================================
[ Another free, high quality, ready to burn DVD I will be adding new torrents on a daily basis - Remember to seed ]
=====================================================================================
MOVIE TITLE: Taken In Broad Daylight
LANGUAGE: English
MOVIE SUBS: No
BURN TESTED: Yes
FORMAT: Pal
GENRE: Crime | Drama | Thriller
RUNTIME: 89 Minutes
YEAR: 2009
IMDB LINK: http://www.imdb.com/title/tt0968311/
=====================================================================================
MOVIE DESC:

Every 24 hrs. after a child's been kidnapped by a stranger, chances of finding them alive diminishes to almost 100% The true and inspiring survival story of a teen horrifically kidnapped, how she manipulates her deranged captor, leaves clues, stays witty in her own mind to control her fear, engineers then ultimately negotiates her safe rescue after enduring six and a half days of hell.
=====================================================================================
MOVIE SPECS:

GENERAL:
Complete name : Taken In Broad Daylight [DVD5]
Format : MPEG-PS
File size : 1.72 GB
Duration : 89 Minutes
Overall bit rate : 2 612 Kbps

VIDEO:
ID : 224 (0xE0)
Format : MPEG Video
Format version : Version 2
Format profile : [email protected]
Format settings, BVOP : Yes
Format settings, Matrix : Default
Duration : 89 Minutes
Bit rate mode : Variable
Bit rate : 2 368 Kbps
Nominal bit rate : 9 608 Kbps
Width : 720 pixels
Height : 576 pixels
Display aspect ratio : 16:9
Frame rate : 24.000 fps
Standard : PAL
Color space : YUV
Chroma subsampling : 4:2:0
Bit depth : 8 bits
Scan type : Progressive
Scan order : 2:2:2:2:2:2:2:2:2:2:2:3 Pulldown
Bits/(Pixel*Frame) : 0.238
Stream size : 928 MiB (91%)

AUDIO:
ID : 128 (0x80)
Format : AC-3
Format/Info : Audio Coding 3
Mode extension : CM (complete main)
Duration : 89 Minutes
Bit rate mode : Constant
Bit rate : 192 Kbps
Channel(s) : 2 channels
Channel positions : Front: L R
Sampling rate : 48.0 KHz
Stream size : 75.3 MiB (7%)
=====================================================================================
TRACKERS:
http://fr33dom.h33t.com:3310/announce
http://exodus.1337x.org/announce
http://tracker.ilibr.org/announce
http://tpb.tracker.prq.to/announce
http://red.tracker.prq.to/announce
http://tracker.openbittorrent.com/announce
http://gemini.tracker.prq.to/announce
http://11.rarbg.com/announce
=====================================================================================
[FOOT NOTE]
If you are happy with this download, it would be nice to hear your views or comments that you might have. Enjoy
=====================================================================================
Screen Shot Of Taken In Broad Daylight
=====================================================================================
http://leetpic.com/images/takeninbro.jpg

=====================================================================================
http://torrent-stats.info/b9f3/a729be39.png

=====================================================================================

Related torrents

Torrent NameAddedSizeSeedLeechHealth
4 months ago - in Movies3.28 GB00
1 Year+ - in Movies1.23 GB102
Verified torrent
1 Year+ - in Movies695.57 MB273237
1 Year+ - in Movies3.28 GB00
1 Year+ - in Movies5.46 GB00

Comments (0 Comments)




Please login or create a FREE account to post comments

Latest Searches

| pop chris brown | Shin Godzilla | Aerosmith Dude Looks Like A Lady | I Canta | now that s what I call 97 | Lesbians and pee | bruno mars just way u are | bullet 1996 1996 | charlie browns christmas tales 2002 | Kelly Clarkson d |