Quick Browse
Movies
TV shows
Music
Games
Applications
Anime
Other

Donate and Support

Friends
Torrents.me
Torrent Download
Free Movies
1337x
RARBG
Torrent Downloads

Tashan~1CD~DVDRIP~Striker~TheDesiAdda.Com


    Seeders : 0      Leechers : 0
Hash :070721C7940037F74F1067ECCE6DC7D866F2AE1C
Added :1 Year+ by striker123Verified torrent uploader in Movies
Size :692.98 MB
Stream :Watch Full Movies Online @ Movie4u
Share :


Tashan~1CD~DVDRIP~Striker~TheDesiAdda.Com
Anonymous and Direct Download 300GB+ free







Warning! Do not Download Torrents Without a VPN!
Your IP Address is .   And Location is
Your Internet Provider and Government can track your torrent Activity!  Hide your IP ADDRESS with a VPN!
We Strongly Recommend Using SpyOFF Torrent VPN to Anonymize your Torrenting. It's FREE For 15 Days!

Note :

Please Update (Trackers Info) Before Downloading Torrents to See Updated Seeders And Leechers for Batter Download Speed.

Trackers List

Tracker NameLast CheckStatusSeedersLeechers
udp://tracker.ilibr.org:6969/announce2 months agosuccess00
udp://tracker.coppersurfer.tk:802 months agosuccess00
http://tracker.trackerfix.com/announce2 months agosuccess00
udp://9.rarbg.com:2710/announce2 months agosuccess00




Torrent File Content (4 files)


Tashan~1CD~DVDRIP~Striker~TheDesiAdda.Com
     More Movies.url -
112 bytes

     Tashan~1CD~DVDRIP~Striker~TheDesiAdda.Com.avi -
692.31 MB

     TeamTDA.jpg -
681.47 KB

     Tracked By DesiAdda.com.txt -
23 bytes



Description



http://i53.tinypic.com/mu8y3b.jpg


http://www.image.videorockers.in/hosted/90fd1472acca77fa1ca3fd9bf9c23760.jpg


http://i51.tinypic.com/n13txv.png


[CODE]
General

Format : AVI
Format/Info : Audio Video Interleave
Format profile : OpenDML
File size : 692 MiB
Duration : 2h 12mn
Overall bit rate : 732 Kbps
Writing application : AVI-Mux GUI 1.17.7, Aug 8 2006 20:59:17

Video
ID : 0
Format : MPEG-4 Visual
Format profile : [email protected]
Format settings, BVOP : Yes
Format settings, QPel : No
Format settings, GMC : No warppoints
Format settings, Matrix : Custom
Codec ID : XVID
Codec ID/Hint : XviD
Duration : 2h 12mn
Bit rate : 633 Kbps
Width : 640 pixels
Height : 288 pixels
Display aspect ratio : 2.222
Frame rate : 19.181 fps
Resolution : 24 bits
Colorimetry : 4:2:0
Scan type : Progressive
Bits/(Pixel*Frame) : 0.179
Stream size : 599 MiB (87%)
Writing library : XviD 1.2.0.dev47 (UTC 2006-11-01)

Audio
ID : 1
Format : MPEG Audio
Format version : Version 1
Format profile : Layer 3
Codec ID : 55
Codec ID/Hint : MP3
Duration : 2h 12mn
Bit rate mode : Constant
Bit rate : 96.0 Kbps
Channel(s) : 2 channels
Sampling rate : 32.0 KHz
Resolution : 16 bits
Stream size : 90.8 MiB (13%)
Alignment : Aligned on interleaves
Interleave, duration : 955 ms (18.31 video frames)
Interleave, preload duration : 216 ms
Title : VTS_01_1 T01 DELAY 0ms
Writing library : LAME3.98a
Encoding settings : -m j -V 4 -q 2 -lowpass 15.1 -b 96


[/CODE]


http://i51.tinypic.com/2cgga6v.png


http://i55.tinypic.com/30kbu3m.jpg



http://i55.tinypic.com/2dah9bk.png

Related torrents

Torrent NameAddedSizeSeedLeechHealth
1 Year+ - in Movies691.74 MB10
1 Year+ - in Movies2.74 GB01
1 Year+ - in Movies700.7 MB00
1 Year+ - in Movies4.33 GB20
1 Year+ - in TV shows372.58 MB01

Comments (0 Comments)




Please login or create a FREE account to post comments

Latest Searches

| Songhoy Blues Resistance | her finals | Cest quoi cette famille | melhor 7 e 80 | fisting insertions | dani tropical | Bianca Stone mandy | cars 2017 1080p | 4k Enter The Dragon | fallinlovia casual |