Quick Browse
Movies
TV shows
Music
Games
Applications
Anime
Other
Facebook
Advertising

Friends
Torrent Download
Movie4u
1337x.to
Torrent Downloads




Verified torrent Tekken [DVD5] [ENG] [AC3] [Hannspree]


    Seeders : 1      Leechers : 21
Hash :7FEF495418381FC149972849F97DE698DB55A98C
Added :1 Year+ by HannspreeVerified torrent uploader in Movies
Size :2.66 GB
Stream :WATCH ONLINE @ Movie4u


Tekken [DVD5] [ENG] [AC3] [Hannspree]
Free and Fast Download with Usenet 300GB+ free







Trackers List

Tracker NameLast CheckStatusSeedersLeechers




Torrent File Content (15 files)


Tekken
    VIDEO_TS
          VIDEO_TS.BUP -
12 KB

          VIDEO_TS.IFO -
12 KB

          VIDEO_TS.VOB -
58 KB

          VTS_01_0.BUP -
62 KB

          VTS_01_0.IFO -
62 KB

          VTS_01_0.VOB -
58 KB

          VTS_01_1.VOB -
1023.97 MB

          VTS_01_2.VOB -
1023.97 MB

          VTS_01_3.VOB -
670.24 MB

    Tekken [Images]
          Tekken [Cover].jpg -
100.25 KB

          Tekken [Disc].jpg -
26.32 KB

          Tekken [Screens1].jpg -
153.01 KB

          Tekken [Screens2].jpg -
137.8 KB

     Tekken.NFO -
3.83 KB

     Torrent downloaded from Demonoid.com.txt -
47 bytes



Description



=====================================================================================
[ Another free, high quality, ready to burn DVD I will be adding new torrents on a daily basis - Remember to seed ]
=====================================================================================
MOVIE TITLE: Tekken
LANGUAGE: English
MOVIE SUBS: No
BURN TESTED: Yes
FORMAT: Pal
GENRE: Action | Adventure | Drama | Sci-Fi
RUNTIME: 87 Minutes
YEAR: 2010
IMDB LINK: http://www.imdb.com/title/tt0411951/
=====================================================================================
MOVIE DESC:

A Young Man Who seeks revenge of his mothers death. He finds his grand-father, Heihachi Mishima, and pleas to be trained. When the Mishima leader announces a "King of Iron Fist" tournament. He finds out that his mother's killer, OGRE, will be participating in the tournament. He must fight against the worlds top competitors to achieve his goal with no interference.
=====================================================================================
MOVIE SPECS:

GENERAL:
Complete name : Tekken [DVD5]
Format : MPEG-PS
File size : 2.65 GB
Duration : 87 Minutes
Overall bit rate : 4 202 Kbps

VIDEO:
ID : 224 (0xE0)
Format : MPEG Video
Format version : Version 2
Format profile : [email protected]
Format settings, BVOP : Yes
Format settings, Matrix : Default
Duration : 87 Minutes
Bit rate mode : Variable
Bit rate : 3 926 Kbps
Nominal bit rate : 9 608 Kbps
Width : 720 pixels
Height : 576 pixels
Display aspect ratio : 16:9
Frame rate : 25.000 fps
Standard : PAL
Color space : YUV
Chroma subsampling : 4:2:0
Bit depth : 8 bits
Scan type : Progressive
Bits/(Pixel*Frame) : 0.379
Stream size : 957 MiB (93%)

AUDIO:
ID : 128 (0x80)
Format : AC-3
Format/Info : Audio Coding 3
Mode extension : CM (complete main)
Duration : 87 Minutes
Bit rate mode : Constant
Bit rate : 192 Kbps
Channel(s) : 2 channels
Channel positions : Front: L R
Sampling rate : 48.0 KHz
Stream size : 46.8 MiB (5%)
=====================================================================================
TRACKER:
http://inferno.demonoid.com:3402/announce
http://denis.stalker.h3q.com/announce
http://exodus.1337x.org/announce
http://tracker.ilibr.org/announce
http://tpb.tracker.prq.to/announce
http://red.tracker.prq.to/announce
=====================================================================================
[FOOT NOTE]
If you are happy with this download, it would be nice to hear your views or comments that you might have. Enjoy
=====================================================================================
Screen Shots Of Tekken
=====================================================================================
http://leetpic.com/images/tekkenscre.jpg

=====================================================================================
http://leetpic.com/images/tekkentnt.jpg

=====================================================================================

Related torrents

Torrent NameAddedSizeSeedLeechHealth
Verified torrent
1 Year+ - in Movies1.68 GB42
Verified torrent
1 Year+ - in Movies1.63 GB03
Verified torrent
1 Year+ - in Movies2.14 GB28
Verified torrent
1 Year+ - in Movies869.42 MB55
Verified torrent
1 Year+ - in Movies2 GB02

Comments (0 Comments)




Please login or create a FREE account to post comments

Latest Searches

| moment of detonation | How I Met Your Mother S06 Season 7 | night work by steve hamilton | solid foundation migos | when I was u | jane the virgin x265 1080p | Paul Oakenfold Resident Two Years Of Oakenfold At Cream | Riley DontBreakMe | boundgods bg 37393 christian wilde and scott harbor hi hd | lynn mc |