Quick Browse
Movies
TV shows
Music
Games
Applications
Anime
Other
Facebook
Advertising

Friends
Torrent Download
Movie4u
1337x.to
Torrent Downloads




Verified torrent Terra Nova S01E06 Bylaw HDTV XviD-Eng Sub_Ita-[IDN_CREW]


    Seeders : 1      Leechers : 2
Hash :53A07BD92DE91C4AE952E82AF6D14B7BC2920D18
Added :1 Year+ by manny02Verified torrent uploader in TV shows
Size :349.99 MB
Stream :WATCH ONLINE @ Movie4u


Terra Nova S01E06 Bylaw HDTV XviD-Eng Sub_Ita-[IDN_CREW]
Free and Fast Download with Usenet 300GB+ free







Trackers List

Tracker NameLast CheckStatusSeedersLeechers




Torrent File Content (2 files)


Terra.Nova.S01E06.Bylaw.HDTV.XviD-Eng.Sub_Ita-[IDN_CREW]
     IDN_CREW Leggimi.txt -
294 bytes

     Terra.Nova.S01E06.Bylaw.HDTV.XviD-Eng.Sub_Ita-[IDN_CREW].avi -
349.99 MB



Description



http://img535.imageshack.us/img535/9357/terranovas01.jpg


http://img514.imageshack.us/img514/1502/inforelease.png


[color=blue]Titolo:[/color] Terra Nova
[color=blue] Anno: [/color]2011
[color=blue]Nazionalità: [/color]United States
[color=blue]Genere:[/color] Avventura, Drammatico, Fantascienza
[color=blue]Lingua:[/color] Inglese
[color=blue]Stagione:[/color] 1
[color=blue]Episodi:[/color] 13
[color=blue]Durata Episodio:[/color] 45 min ca (episodio)
[color=blue]Ideatore:[/color] Kelly Marcel e Craig Silverstein
[color=blue]Produttore Esecutivo:[/color]Steven Spielberg
[color=blue]Casa di Produzione:[/color] 20th Century Fox Television
[color=blue]Fonti:[/color]http://it.wikipedia.org/wiki/Terra_Nova_%28serie_televisiva%29
[/color]


http://img685.imageshack.us/img685/5835/casta.png


http://img192.imageshack.us/img192/8158/terranova2.jpg


Interpreti e personaggi
•Jason O'Mara: Jim Shannon
•Stephen Lang: C.te Nathaniel Taylor
•Shelley Conn: Elisabeth Shannon
•Landon Liboiron: Josh Shannon
•Naomi Scott: Maddy Shannon
•Allison Miller: Skye
•Mido Hamada: Guzman
•Alana Mansour: Zoe Shannon
•Christine Adams: Mira


http://img153.imageshack.us/img153/7608/tramao.png


La serie è ambientata nel 2149, anno in cui tutta la vita sul pianeta Terra rischia di estinguersi. Per salvare la razza umana, alcuni scienziati creano un portale in grado di trasportare chi lo attraversa su una Terra preistorica, 85 milioni di anni nel passato. La famiglia Shannon (il padre Jim, la moglie Elisabeth e i tre figli Josh, Maddy e Zoe) si trasferisce a Terra Nova, la prima colonia umana al di là del portale.
http://img864.imageshack.us/img864/7976/episodi.png


1. Genesis (1° parte - 2° parte)
2. Istinct
3. Bylaw
4. What Remains
5. The Runaway
6. Bylaw
7. ….
8. ….
9. ….
10. ….
11. ….
12. ….
13. ….


http://img190.imageshack.us/img190/7663/recension.png

Terra Nova è una serie televisiva statunitense di fantascienza prodotta da Steven Spielberg, che andrà in onda dal 26 settembre 2011 su Fox.
In Italia la serie verrà trasmessa in contemporanea con gli Stati Uniti, a partire dal 4 ottobre 2011 su Fox.
Terra Nova, l’attesissima serie firmata da Steven Spielberg e Brannon Braga è costruita su una ricetta che mescola un pizzico di Jurassic Park, una manciata di Avatar, un cucchiaino di Lost in Space, la proverbiale esperienza di Spielberg e Braga in campo fantascientifico e, nel caso del primo nome, anche quella in campo “dinosauri”…
http://img529.imageshack.us/img529/7286/datifile.png


General
Complete name : Terra.Nova.S01E06.Bylaw.HDTV.XviD-Eng.Sub_Ita-[IDN_CREW].avi
Format : AVI
Format/Info : Audio Video Interleave
File size : 350 MiB
Duration : 43mn 18s
Overall bit rate : 1 130 Kbps
Writing application : VirtualDubMod 1.5.10.2 (build 2542/release)
Writing library : VirtualDubMod build 2542/release

Video
Format : MPEG-4 Visual
Format profile : Streaming [email protected]
Format settings, BVOP : Yes
Format settings, QPel : No
Format settings, GMC : No warppoints
Format settings, Matrix : Default
Muxing mode : Packed bitstream
Codec ID : XVID
Codec ID/Hint : XviD
Duration : 43mn 18s
Bit rate : 962 Kbps
Width : 624 pixels
Height : 352 pixels
Display aspect ratio : 16/9
Frame rate : 23.976 fps
Resolution : 24 bits
Colorimetry : 4:2:0
Scan type : Progressive
Bits/(Pixel*Frame) : 0.183
Stream size : 298 MiB (85%)
Writing library : XviD 62

Audio
Format : MPEG Audio
Format version : Version 1
Format profile : Layer 3
Codec ID : 55
Codec ID/Hint : MP3
Duration : 43mn 18s
Bit rate mode : Variable
Bit rate : 155 Kbps
Nominal bit rate : 153 Kbps
Channel(s) : 2 channels
Sampling rate : 48.0 KHz
Resolution : 16 bits
Stream size : 48.1 MiB (14%)
Alignment : Aligned on interleaves
Interleave, duration : 24 ms (0.58 video frame)
Interleave, preload duration : 118 ms
Writing library : LAME3.90.
Encoding settings : ABR



http://img20.imageshack.us/img20/4974/screenshotsph.png


http://img842.imageshack.us/img842/3086/terranovascreen.jpg


[color=red]Per i Sottotitoli ad ITASA[/color]

Related torrents

Torrent NameAddedSizeSeedLeechHealth
1 Year+ - in TV shows338.99 MB10
1 Year+ - in TV shows425.68 MB02
1 Year+ - in TV shows340 MB00
1 Year+ - in TV shows340 MB10
1 Year+ - in TV shows358.09 MB10

Comments (0 Comments)




Please login or create a FREE account to post comments

Latest Searches

| Hegre Art Charlotta Alex | energy myths | Years of Living Dangerously Part 4 480p HDTV x264 mSD | apk NFS most wanted | bootleg remix 2015 | The Big Bang Theory S10E10 avi | ole original mix | My Sister English | and deep throat fucked wife | Decca Philips |