Quick Browse
Movies
TV shows
Music
Games
Applications
Anime
Other
Facebook
Advertising

Friends
Torrent Download
Movie4u
1337x.to
Torrent Downloads




Verified torrent Terra Nova S01E11-E13 HDTV XviD-Eng Sub_Ita-[IDN_CREW]


    Seeders : 1      Leechers : 0
Hash :21D95F0ED204271261B7A19DCD2CBFBE8FE01FA5
Added :1 Year+ by manny02Verified torrent uploader in TV shows
Size :1.02 GB
Stream :WATCH ONLINE @ Movie4u


Terra Nova S01E11-E13 HDTV XviD-Eng Sub_Ita-[IDN_CREW]
Free and Fast Download with Usenet 300GB+ free







Trackers List

Tracker NameLast CheckStatusSeedersLeechers




Torrent File Content (3 files)


Terra.Nova.S01E11-E13.HDTV.XviD-Eng.Sub_Ita-[IDN_CREW]
     IDN_CREW Leggimi.txt -
294 bytes

     Terra.Nova.S01E11.Within.HDTV.XviD-Eng.Sub_Ita-[IDN_CREW].avi -
349.77 MB

     Terra.Nova.S01E12-E13.Occupation-Resistance.HDTV.XviD-Eng.Sub_Ita-[IDN_CREW].avi -
699.49 MB



Description



http://img535.imageshack.us/img535/9357/terranovas01.jpg


http://img514.imageshack.us/img514/1502/inforelease.png


[color=blue]Titolo:[/color] Terra Nova
[color=blue] Anno: [/color]2011
[color=blue]Nazionalità: [/color]United States
[color=blue]Genere:[/color] Avventura, Drammatico, Fantascienza
[color=blue]Lingua:[/color] Inglese
[color=blue]Stagione:[/color] 1
[color=blue]Episodi:[/color] 13
[color=blue]Durata Episodio:[/color] 45 min ca (episodio)
[color=blue]Ideatore:[/color] Kelly Marcel e Craig Silverstein
[color=blue]Produttore Esecutivo:[/color]Steven Spielberg
[color=blue]Casa di Produzione:[/color] 20th Century Fox Television
[color=blue]Fonti:[/color]http://it.wikipedia.org/wiki/Terra_Nova_%28serie_televisiva%29
[/color]


http://img685.imageshack.us/img685/5835/casta.png


http://img192.imageshack.us/img192/8158/terranova2.jpg


Interpreti e personaggi
•Jason O'Mara: Jim Shannon
•Stephen Lang: C.te Nathaniel Taylor
•Shelley Conn: Elisabeth Shannon
•Landon Liboiron: Josh Shannon
•Naomi Scott: Maddy Shannon
•Allison Miller: Skye
•Mido Hamada: Guzman
•Alana Mansour: Zoe Shannon
•Christine Adams: Mira


http://img153.imageshack.us/img153/7608/tramao.png


La serie è ambientata nel 2149, anno in cui tutta la vita sul pianeta Terra rischia di estinguersi. Per salvare la razza umana, alcuni scienziati creano un portale in grado di trasportare chi lo attraversa su una Terra preistorica, 85 milioni di anni nel passato. La famiglia Shannon (il padre Jim, la moglie Elisabeth e i tre figli Josh, Maddy e Zoe) si trasferisce a Terra Nova, la prima colonia umana al di là del portale.
http://img864.imageshack.us/img864/7976/episodi.png


1. Genesis (1° parte - 2° parte)
2. Istinct
3. Bylaw
4. What Remains
5. The Runaway
6. Bylaw
7. Nightfall
8. Proof
9. Vs.
10.Now you see me
11.Within
12.Occupation
13.Resistance


http://img190.imageshack.us/img190/7663/recension.png

Terra Nova è una serie televisiva statunitense di fantascienza prodotta da Steven Spielberg, che andrà in onda dal 26 settembre 2011 su Fox.
In Italia la serie verrà trasmessa in contemporanea con gli Stati Uniti, a partire dal 4 ottobre 2011 su Fox.
Terra Nova, l’attesissima serie firmata da Steven Spielberg e Brannon Braga è costruita su una ricetta che mescola un pizzico di Jurassic Park, una manciata di Avatar, un cucchiaino di Lost in Space, la proverbiale esperienza di Spielberg e Braga in campo fantascientifico e, nel caso del primo nome, anche quella in campo “dinosauri”…
http://img529.imageshack.us/img529/7286/datifile.png


General
Complete name : Terra.Nova.S01E12-E13.Occupation-Resistance.HDTV.XviD-Eng.Sub_Ita-[IDN_CREW].avi
Format : AVI
Format/Info : Audio Video Interleave
File size : 699 MiB
Duration : 1h 27mn
Overall bit rate : 1 114 Kbps

Video
Format : MPEG-4 Visual
Format profile : Streaming [email protected]
Format settings, BVOP : Yes
Format settings, QPel : No
Format settings, GMC : No warppoints
Format settings, Matrix : Default
Codec ID : XVID
Codec ID/Hint : XviD
Duration : 1h 27mn
Bit rate : 949 Kbps
Width : 624 pixels
Height : 352 pixels
Display aspect ratio : 16/9
Frame rate : 23.976 fps
Resolution : 24 bits
Colorimetry : 4:2:0
Scan type : Progressive
Bits/(Pixel*Frame) : 0.180
Stream size : 596 MiB (85%)
Writing library : XviD 62

Audio
Format : MPEG Audio
Format version : Version 1
Format profile : Layer 3
Codec ID : 55
Codec ID/Hint : MP3
Duration : 1h 27mn
Bit rate mode : Variable
Bit rate : 153 Kbps
Minimum bit rate : 160 Kbps
Channel(s) : 2 channels
Sampling rate : 48.0 KHz
Resolution : 16 bits
Stream size : 96.0 MiB (14%)
Alignment : Aligned on interleaves
Interleave, duration : 24 ms (0.58 video frame)
Interleave, preload duration : 120 ms
Writing library : LAME3.99r
Encoding settings : ABR



http://img20.imageshack.us/img20/4974/screenshotsph.png


http://img842.imageshack.us/img842/3086/terranovascreen.jpg


[color=red]Per i Sottotitoli ad ITASA[/color]

Related torrents

Torrent NameAddedSizeSeedLeechHealth
1 Year+ - in TV shows425.68 MB02
1 Year+ - in TV shows340 MB00
1 Year+ - in TV shows340 MB10
1 Year+ - in TV shows338.99 MB10
1 Year+ - in TV shows358.09 MB10

Comments (0 Comments)




Please login or create a FREE account to post comments

Latest Searches

| up Yellow | dash blaze | king henry vi | mad max fury road 2015 french hdrip x264 extreme | The Twilight Saga Breaking Dawn Part 1 2011 1080p BrRip x264 YIFY | Chris Brown ft Aaliyah I dont think they know | to the love and down | Niv bible old | Peterfreund Diana | The Twilight Saga Breaking Dawn Part 1 2011 dual audio |