Quick Browse
Movies
TV shows
Music
Games
Applications
Anime
Other
Facebook
Advertising

Friends
Torrent Download
Movie4u
1337x.to
Torrent Downloads




The.Book.of.Eli.2010.CAM.Xvid.TA.avi


    Seeders : 0      Leechers : 0
Hash :F4A933742BCDCCAA63BE0FC5FF1173CFA0060FDF
Added :1 Year+ in Movies
Size :706.19 MB
Stream :WATCH ONLINE @ Movie4u


The.Book.of.Eli.2010.CAM.Xvid.TA.avi
Free and Fast Download with Usenet 300GB+ free







Trackers List

Tracker NameLast CheckStatusSeedersLeechers




Torrent File Content (3 files)


The Book Of Eli www.IWANNADOWNLOAD.com
     The Book of Eli 2010 CAM www.IWANNADOWNLOAD.com.avi -
698.64 MB

     Sample.avi -
7.56 MB

     The Book Of Eli.txt -
2.83 KB



Description



http://www.imdb.com/title/tt1037705/
Video Sample:
http://www.movshare.net/video/s9iu9g5h5iz81

http://i46.tinypic.com/33w8b53.jpg




http://i47.tinypic.com/4q530p.jpg


http://i50.tinypic.com/anbk1g.jpg


http://i48.tinypic.com/21vk41.jpg

Filename:
The.Book.of.Eli.2010.CAM.Xvid.TA.avi

Plot
A post-apocalyptic tale, in which a lone man fights his way across America in order to protect a sacred book that holds the secrets to saving humankind.

Source : LU
General
Complete name : The.Book.of.Eli.2010.CAM.Xvid.TA.avi
Format : AVI
Format/Info : Audio Video Interleave
File size : 699 MiB
Duration : 1h 48mn
Overall bit rate : 902 Kbps
Writing application : Lavf50.6.0
Writing library : VirtualDub build 32661/release

Video
ID : 0
Format : MPEG-4 Visual
Format profile : [email protected]
Format settings, BVOP : Yes
Format settings, QPel : No
Format settings, GMC : No warppoints
Format settings, Matrix : Custom
Muxing mode : Packed bitstream
Codec ID : XVID
Codec ID/Hint : XviD
Duration : 1h 48mn
Bit rate : 793 Kbps
Width : 640 pixels
Height : 262 pixels
Display aspect ratio : 2.40:1
Frame rate : 25.000 fps
Resolution : 24 bits
Colorimetry : 4:2:0
Scan type : Progressive
Bits/(Pixel*Frame) : 0.189
Stream size : 615 MiB (88%)
Writing library : XviD 1.2.1 (UTC 2008-12-04)

Audio
ID : 1
Format : MPEG Audio
Format version : Version 1
Format profile : Layer 3
Codec ID : 55
Codec ID/Hint : MP3
Duration : 1h 48mn
Bit rate mode : Constant
Bit rate : 96.0 Kbps
Channel(s) : 2 channels
Sampling rate : 44.1 KHz
Resolution : 16 bits
Stream size : 74.4 MiB (11%)
Alignment : Aligned on interleaves
Interleave, duration : 26 ms (0.65 video frame)
Interleave, preload duration : 522 ms

Related torrents

Torrent NameAddedSizeSeedLeechHealth
1 Year+ - in Movies698.06 MB00
1 Year+ - in Movies698.64 MB00
1 Year+ - in Movies706.19 MB00
1 Year+ - in Movies825.86 MB00
1 Year+ - in Movies397.66 MB00

Comments (0 Comments)




Please login or create a FREE account to post comments

Latest Searches

| Tiny4k Kimmy Granger Sexy Spinner | darkness v k | ms japanese | sammie daniels casting couch x | windows 8 1 aaaaaEaaa aaaaaa | 4 our eyes only | fidelity sally | Supernatural S12E07 1080p HDTV X264 | secret of the solar | reforce |